<?xml version="1.0" standalone="no"?>
<!DOCTYPE svg PUBLIC "-//W3C//DTD SVG 1.1//EN" "http://www.w3.org/Graphics/SVG/1.1/DTD/svg11.dtd" >
<svg xmlns="http://www.w3.org/2000/svg" xmlns:xlink="http://www.w3.org/1999/xlink" version="1.1">
<metadata>
Created by FontForge 20170731 at Fri Jan  1 02:30:17 1904
 By Aleksey,,,
Copyright (c) 1990, 1992 Adobe Systems Incorporated.  All Rights Reserved. 
</metadata>
<defs>
<font id="DINEngschrift" horiz-adv-x="186" >
  <font-face 
    font-family="DINEngschrift"
    font-weight="400"
    font-stretch="normal"
    units-per-em="1000"
    panose-1="0 0 0 0 0 0 0 0 0 0"
    ascent="800"
    descent="-200"
    x-height="507"
    cap-height="712"
    bbox="-165 -250 1000 937"
    underline-thickness="50"
    underline-position="-155"
    unicode-range="U+0020-F002"
  />
<missing-glyph 
 />
    <glyph glyph-name=".notdef" 
 />
    <glyph glyph-name="glyph1" horiz-adv-x="0" 
 />
    <glyph glyph-name="glyph2" 
 />
    <glyph glyph-name="space" unicode=" " 
 />
    <glyph glyph-name="space" unicode="&#xa0;" 
 />
    <glyph glyph-name="exclam" unicode="!" horiz-adv-x="240" 
d="M69 0v102h102v-102h-102v0zM95 176l-39 536h128l-39 -536h-50v0z" />
    <glyph glyph-name="quotedbl" unicode="&#x22;" horiz-adv-x="278" 
d="M33 536v176h80v-176h-80v0zM165 536v176h80v-176h-80v0z" />
    <glyph glyph-name="numbersign" unicode="#" horiz-adv-x="372" 
d="M180 0l29 215h-84l-29 -215h-68l29 215h-51v60h59l22 162h-50v60h58l29 215h68l-29 -215h84l29 215h68l-29 -215h51v-60h-59l-22 -162h50v-60h-58l-29 -215h-68v0zM217 275l22 162h-84l-22 -162h84v0z" />
    <glyph glyph-name="dollar" unicode="$" horiz-adv-x="372" 
d="M161 -90v84q-65 8 -107.5 54.5t-42.5 112.5v40h102v-36q0 -23 11.5 -43t36.5 -26v230l-34 14q-66 27 -88.5 71.5t-22.5 111.5q0 76 36 130.5t109 64.5v75h51v-75q68 -8 108.5 -56.5t40.5 -104.5v-50h-102v23q0 32 -10.5 55t-36.5 31v-201l42 -17q68 -25 87.5 -71
t19.5 -124q0 -85 -33 -143t-116 -65v-85h-51v0zM212 304v-208q32 8 39.5 35.5t7.5 70.5q0 51 -8.5 70t-38.5 32v0zM161 437v179q-25 -10 -34 -35t-9 -57q0 -36 7 -54.5t36 -32.5v0z" />
    <glyph glyph-name="percent" unicode="%" horiz-adv-x="352" 
d="M258 -6q-39 1 -62 21.5t-23 54.5v65q0 38 23 60t62 22t62 -22t23 -60v-65q0 -34 -23 -54.5t-62 -20.5v-1zM233 131v-51q0 -10 7.5 -18t17.5 -8t17.5 8t7.5 18v51q0 11 -7.5 18.5t-17.5 7.5t-17.5 -7.5t-7.5 -18.5v0zM21 0l244 712h66l-244 -712h-66v0zM94 495
q-39 0 -62 21t-23 55v65q0 38 23 60t62 22t62 -22t23 -60v-65q0 -34 -23 -55t-62 -21v0zM94 555q10 0 17.5 8t7.5 18v51q0 11 -7.5 18.5t-17.5 7.5t-17.5 -7.5t-7.5 -18.5v-51q0 -10 7.5 -18t17.5 -8v0z" />
    <glyph glyph-name="ampersand" unicode="&#x26;" horiz-adv-x="481" 
d="M353 0l-34 54q-30 -30 -62.5 -44.5t-73.5 -14.5q-61 0 -104 45t-43 119q0 59 28 103.5t70 81.5q-27 38 -44.5 78.5t-17.5 85.5q0 57 35 97.5t104 40.5q65 0 100 -38t35 -91q0 -49 -31 -95t-73 -84q13 -20 28.5 -45.5t32.5 -53.5q8 -12 16.5 -25t16.5 -25l55 75l63 -44
l-76 -98l77 -122h-102v0zM126 164q0 -37 21.5 -63.5t54.5 -26.5q19 0 37 10.5t30 22.5q3 2 5 5t4 5l-98 156q-22 -23 -38 -49.5t-16 -59.5v0zM162 506q0 -23 11.5 -49.5t27.5 -53.5l9 9l10 10q16 18 29 41t13 52v1.5v1.5q-1 18 -14 33t-35 15q-23 0 -37 -18.5t-14 -41.5v0z
" />
    <glyph glyph-name="quotesingle" unicode="'" 
d="M53 536v176h80v-176h-80v0z" />
    <glyph glyph-name="parenleft" unicode="(" horiz-adv-x="222" 
d="M169 712h34q-22 -76 -33 -156.5t-15 -161.5q-2 -29 -2.5 -58t-0.5 -58q0 -101 13.5 -195.5t37.5 -181.5l-34 -1q-35 52 -59.5 112t-39.5 122q-10 44 -15 88t-5 84q0 32 3 65t9 66q14 74 41.5 145.5t65.5 129.5v0z" />
    <glyph glyph-name="parenright" unicode=")" horiz-adv-x="222" 
d="M53 -100h-34q22 77 33 157t15 161q2 29 2.5 58t0.5 58q0 101 -13.5 196t-37.5 182h34q35 -51 59.5 -111.5t39.5 -122.5q10 -44 15 -88t5 -84q0 -32 -3 -65t-9 -66q-14 -74 -41.5 -145t-65.5 -129v-1z" />
    <glyph glyph-name="asterisk" unicode="*" horiz-adv-x="370" 
d="M31 604l28 52l98 -60l-4 116h64l-4 -116l98 60l28 -52l-100 -56l100 -55l-28 -53l-98 60l4 -116h-64l4 116l-98 -60l-28 53l100 55l-100 56v0z" />
    <glyph glyph-name="plus" unicode="+" horiz-adv-x="600" 
d="M260 293v213h80v-213h213v-80h-213v-213h-80v213h-213v80h213v0z" />
    <glyph glyph-name="comma" unicode="," 
d="M42 -74v176h102v-102l-102 -74v0z" />
    <glyph glyph-name="hyphen" unicode="-" horiz-adv-x="389" 
d="M44 226v102h301v-102h-301v0z" />
    <glyph glyph-name="period" unicode="." 
d="M42 0v102h102v-102h-102v0z" />
    <glyph glyph-name="slash" unicode="/" horiz-adv-x="222" 
d="M5 -6l132 724h80l-132 -724h-80v0z" />
    <glyph glyph-name="zero" unicode="0" horiz-adv-x="372" 
d="M34 147v418q0 71 45.5 112t106.5 41t106.5 -41t45.5 -112v-418q0 -71 -45.5 -111.5t-106.5 -40.5t-106.5 40.5t-45.5 111.5v0zM136 565v-418q0 -22 14 -36.5t36 -14.5t36 14.5t14 36.5v418q0 22 -14 36.5t-36 14.5t-36 -14.5t-14 -36.5v0z" />
    <glyph glyph-name="one" unicode="1" horiz-adv-x="372" 
d="M155 0v604l-102 -75v108l102 75h102v-712h-102v0z" />
    <glyph glyph-name="two" unicode="2" horiz-adv-x="372" 
d="M34 0v96l184 347q6 12 9.5 21.5t5.5 18.5q2 12 2.5 25t0.5 29v8v7q-1 24 -9.5 44t-40.5 20q-22 0 -36 -13t-14 -38v-58h-102v56q0 64 44.5 109.5t108.5 45.5q80 0 115.5 -54t35.5 -125q0 -28 -1 -46.5t-5 -35.5q-4 -14 -10.5 -29.5t-17.5 -36.5l-150 -289h184v-102h-304
v0z" />
    <glyph glyph-name="three" unicode="3" horiz-adv-x="372" 
d="M155 322v90q46 0 63.5 11t17.5 51v92q0 22 -13.5 36t-36.5 14q-21 0 -32.5 -11t-15.5 -25q-1 -3 -1.5 -7t-0.5 -7v-58h-102v59q0 63 45.5 107t108.5 44q34 0 59 -12t41 -26l6 -6t5 -6l2.5 -2.5t2.5 -3.5q17 -22 25.5 -51.5t8.5 -93.5q0 -60 -5.5 -85.5t-30.5 -45.5
q-5 -4 -12 -8.5t-15 -9.5q8 -5 14.5 -9.5t12.5 -9.5q27 -23 31.5 -52t4.5 -92q0 -62 -4 -88.5t-16 -46.5q-2 -3 -3.5 -5.5t-3.5 -5.5q-19 -28 -49 -46t-77 -18q-10 0 -20 1t-20 4q-42 9 -76.5 43.5t-34.5 102.5v58h102v-53q0 -24 13.5 -39.5t36.5 -15.5t36.5 15.5t13.5 41.5
v102q0 41 -15.5 54t-65.5 13v0z" />
    <glyph glyph-name="four" unicode="4" horiz-adv-x="372" 
d="M212 0v106h-203v96l147 510h108l-153 -510h101v203h102v-203h49v-96h-49v-106h-102v0z" />
    <glyph glyph-name="five" unicode="5" horiz-adv-x="372" 
d="M338 712v-96h-202v-192q14 14 36 23.5t49 9.5q52 0 84.5 -32t32.5 -94v-184q0 -71 -45.5 -111.5t-106.5 -40.5t-106.5 40.5t-45.5 111.5v30h102v-26q0 -26 15 -40.5t37 -14.5q23 0 35.5 14t12.5 39v167q0 21 -13.5 36t-34.5 15q-17 0 -27 -7t-16 -15q-3 -5 -5 -9.5
t-4 -7.5h-90v384h292v0z" />
    <glyph glyph-name="six" unicode="6" horiz-adv-x="372" 
d="M301 712l-116 -299l2 -2q5 4 16 6.5t27 2.5q27 0 50 -13t36 -33q0 -1 0.5 -1.5l1.5 -1.5q12 -20 16 -50.5t4 -112.5q0 -60 -3 -86t-13 -46q-1 -3 -3 -6.5t-4 -6.5q-19 -33 -53 -50.5t-76 -17.5q-41 0 -74.5 18t-53.5 50q-2 3 -4 6.5t-4 6.5q-10 20 -13 46t-3 86
q0 52 2.5 77.5t8.5 46.5q2 5 4 10.5t4 11.5l134 358h114v0zM236 147v132q0 23 -15 37t-35 14q-19 0 -34.5 -14t-15.5 -37v-132q0 -23 15.5 -37t34.5 -14q20 0 35 14t15 37v0z" />
    <glyph glyph-name="seven" unicode="7" horiz-adv-x="372" 
d="M57 0l179 616h-112v-82h-90v178h304v-102l-173 -610h-108v0z" />
    <glyph glyph-name="eight" unicode="8" horiz-adv-x="372" 
d="M34 526q0 50 6 76t20 47q3 3 5.5 6.5t5.5 7.5q20 26 50.5 40.5t64.5 14.5q35 0 65 -14.5t50 -40.5q3 -4 5.5 -7.5t5.5 -6.5q14 -21 20 -47t6 -76q0 -53 -4.5 -82t-27.5 -52q-4 -5 -8.5 -9t-10.5 -9q3 -2 6 -4.5t5 -4.5q29 -25 34.5 -58.5t5.5 -107.5q0 -59 -5 -85.5
t-17 -47.5q-1 -2 -2.5 -4.5t-3.5 -4.5q-17 -26 -48.5 -44t-75.5 -18t-75.5 18t-48.5 44q-2 2 -3.5 4.5t-2.5 4.5q-12 21 -17 47.5t-5 85.5q0 74 5.5 107.5t34.5 58.5q2 2 5 4.5t6 4.5q-6 5 -10.5 9t-8.5 9q-23 23 -27.5 52t-4.5 82v0zM236 146v140q0 21 -15 35.5t-35 14.5
q-19 0 -34.5 -14.5t-15.5 -35.5v-140q0 -21 15.5 -35.5t34.5 -14.5q20 0 35 14.5t15 35.5v0zM236 462v104q0 21 -15 35.5t-35 14.5q-19 0 -34.5 -14.5t-15.5 -35.5v-104q0 -21 15.5 -35.5t34.5 -14.5q20 0 35 14.5t15 35.5v0z" />
    <glyph glyph-name="nine" unicode="9" horiz-adv-x="372" 
d="M71 0l116 299l-2 2q-5 -4 -15.5 -6.5t-27.5 -2.5q-27 0 -50 13.5t-36 32.5q0 1 -0.5 1.5l-1.5 1.5q-12 20 -16 50.5t-4 112.5q0 60 3 86t13 46q1 3 3 6.5t4 6.5q20 33 53.5 51t75.5 18q41 0 74.5 -18.5t53.5 -50.5q2 -3 4 -6.5t4 -6.5q10 -20 13 -46t3 -86
q0 -52 -2.5 -77.5t-8.5 -46.5q-2 -5 -4 -10.5t-4 -11.5l-134 -358h-114v0zM136 565v-132q0 -23 15.5 -37t34.5 -14q20 0 35 14t15 37v132q0 23 -15 37t-35 14q-19 0 -34.5 -14t-15.5 -37v0z" />
    <glyph glyph-name="colon" unicode=":" 
d="M42 0v102h102v-102h-102v0zM42 227v102h102v-102h-102v0z" />
    <glyph glyph-name="semicolon" unicode=";" 
d="M42 -74v176h102v-102l-102 -74v0zM42 227v102h102v-102h-102v0z" />
    <glyph glyph-name="less" unicode="&#x3c;" horiz-adv-x="600" 
d="M553 514v-80l-397 -181l397 -181v-80l-506 231v60l506 231v0z" />
    <glyph glyph-name="equal" unicode="=" horiz-adv-x="600" 
d="M47 113v80h506v-80h-506v0zM47 313v80h506v-80h-506v0z" />
    <glyph glyph-name="greater" unicode="&#x3e;" horiz-adv-x="600" 
d="M47 -8v80l397 181l-397 181v80l506 -231v-60l-506 -231v0z" />
    <glyph glyph-name="question" unicode="?" horiz-adv-x="370" 
d="M134 0v102h102v-102h-102v0zM32 507v59q0 63 45 107.5t109 44.5q37 0 67.5 -15t50.5 -42q5 -6 9 -12t7 -12q10 -19 14 -41t4 -57q0 -51 -3 -74t-13 -40l-69 -118q-7 -12 -12 -24.5t-5 -26.5v-80h-102v93q0 22 7 42t18 39l64 104q6 10 9 22t4 24v6v6v53q0 21 -14.5 36
t-35.5 15h-4.5t-4.5 -1q-16 -3 -29.5 -15.5t-13.5 -34.5v-58h-102v0z" />
    <glyph glyph-name="at" unicode="@" horiz-adv-x="800" 
d="M639 548l-87 -275q-4 -13 -7 -25.5t-3 -19.5q0 -13 5 -21t18 -8q5 0 10 1t9 2q36 13 68 61t44 103q2 12 3.5 24t1.5 24q0 105 -80.5 171.5t-187.5 66.5q-126 0 -214 -91t-88 -208q0 -122 88.5 -207.5t218.5 -85.5h5.5h5.5q70 3 134 33.5t98 71.5h77q-49 -80 -137.5 -125
t-190.5 -45q-157 0 -266.5 103t-109.5 260q0 150 112 255t266 105q141 0 243.5 -84t102.5 -215q0 -89 -45 -155t-100 -98q-22 -13 -43.5 -20t-39.5 -7q-34 0 -54 16t-24 47h-2l-1.5 -1.5l-1.5 -1.5q-21 -22 -47.5 -41t-71.5 -19q-64 0 -103.5 45t-39.5 107q0 7 0.5 13.5
t0.5 12.5q9 93 72 170.5t161 77.5h2.5h2.5q34 -1 65 -20t45 -58h2l20 61h63v0zM513 410q0 35 -19 59t-55 24q-52 0 -92 -45t-55 -99q-3 -13 -5 -26t-2 -25q0 -42 23 -64.5t60 -22.5q43 0 79.5 42t53.5 93q6 17 9 33t3 31v0z" />
    <glyph glyph-name="A" unicode="A" horiz-adv-x="407" 
d="M2 0l159 712h85l159 -712h-102l-30 153h-139l-30 -153h-102v0zM254 249l-50 258h-2l-50 -258h102v0z" />
    <glyph glyph-name="B" unicode="B" horiz-adv-x="426" 
d="M48 0v712h149q99 0 140 -55t41 -125v-26q0 -57 -18 -84t-52 -48q36 -17 53 -50.5t17 -89.5v-40q0 -93 -46 -143.5t-145 -50.5h-139v0zM150 330v-228h44q62 0 75 34t13 86q0 53 -15.5 80.5t-71.5 27.5h-45v0zM150 616v-196h46q51 0 68.5 25.5t17.5 74.5q0 47 -20 71.5
t-70 24.5h-42v0z" />
    <glyph glyph-name="C" unicode="C" horiz-adv-x="407" 
d="M372 203v-44q0 -66 -47 -115t-115 -49q-7 0 -14 0.5t-14 1.5q-52 5 -96 42t-44 123v392q0 70 46 117t120 47q71 0 117.5 -48t46.5 -122v-40h-102v34q0 30 -17 52t-46 22q-38 0 -50.5 -23.5t-12.5 -59.5v-364q0 -31 14 -52t48 -21q4 0 8 0.5t8 1.5q18 4 33 20t15 50v35
h102v0z" />
    <glyph glyph-name="D" unicode="D" horiz-adv-x="426" 
d="M48 0v712h151q86 0 132.5 -49t46.5 -135v-333q0 -99 -49 -147t-139 -48h-142v0zM150 616v-520h47q43 0 61 21.5t18 67.5v343q0 42 -17 65t-62 23h-47v0z" />
    <glyph glyph-name="E" unicode="E" horiz-adv-x="370" 
d="M48 0v712h304v-96h-202v-209h176v-96h-176v-209h202v-102h-304v0z" />
    <glyph glyph-name="F" unicode="F" horiz-adv-x="370" 
d="M48 0v712h304v-96h-202v-216h176v-96h-176v-304h-102v0z" />
    <glyph glyph-name="G" unicode="G" horiz-adv-x="426" 
d="M42 168v376q0 82 49 125.5t109 47.5q3 1 6.5 1h6.5h6.5t6.5 -1q60 -4 109 -47.5t49 -125.5v-36h-102v36q0 37 -20.5 54.5t-48.5 17.5t-48.5 -17.5t-20.5 -54.5v-376q0 -37 20.5 -54.5t48.5 -17.5t48.5 17.5t20.5 54.5v134h-81v90h183v-224q0 -82 -49 -125t-109 -47
q-3 -1 -6.5 -1h-6.5h-6.5t-6.5 1q-60 4 -109 47t-49 125v0z" />
    <glyph glyph-name="H" unicode="H" horiz-adv-x="426" 
d="M48 0v712h102v-305h126v305h102v-712h-102v317h-126v-317h-102v0z" />
    <glyph glyph-name="I" unicode="I" horiz-adv-x="204" 
d="M51 0v712h102v-712h-102v0z" />
    <glyph glyph-name="J" unicode="J" horiz-adv-x="333" 
d="M285 712v-544q0 -70 -46 -121.5t-128 -51.5q-40 0 -69 14.5t-48 32.5l-8 8t-7 8l79 64q11 -10 25.5 -18t30.5 -8q6 0 12.5 1t13.5 4q16 7 29.5 25.5t13.5 55.5v530h102v0z" />
    <glyph glyph-name="K" unicode="K" horiz-adv-x="426" 
d="M48 0v712h102v-325h2l149 325h102l-139 -285l165 -427h-108l-116 316l-55 -103v-213h-102v0z" />
    <glyph glyph-name="L" unicode="L" horiz-adv-x="370" 
d="M48 0v712h102v-610h202v-102h-304v0z" />
    <glyph glyph-name="M" unicode="M" horiz-adv-x="556" 
d="M48 0v712h98l131 -377h2l130 377h99v-712h-102v433h-2l-101 -306h-51l-100 306h-2v-433h-102v0z" />
    <glyph glyph-name="N" unicode="N" horiz-adv-x="444" 
d="M44 0v712h98l154 -429h2v429h102v-712h-96l-156 428h-2v-428h-102v0z" />
    <glyph glyph-name="O" unicode="O" horiz-adv-x="426" 
d="M42 168v376q0 82 49 125.5t109 47.5q3 1 6.5 1h6.5h6.5t6.5 -1q60 -4 109 -47.5t49 -125.5v-376q0 -82 -49 -125t-109 -47q-3 -1 -6.5 -1h-6.5h-6.5t-6.5 1q-60 4 -109 47t-49 125v0zM144 544v-376q0 -37 20.5 -54.5t48.5 -17.5t48.5 17.5t20.5 54.5v376q0 37 -20.5 54.5
t-48.5 17.5t-48.5 -17.5t-20.5 -54.5v0z" />
    <glyph glyph-name="P" unicode="P" horiz-adv-x="407" 
d="M48 0v712h153q42 0 74 -11t58 -39t36 -65.5t10 -101.5q0 -46 -5.5 -80t-23.5 -63q-21 -34 -56.5 -54t-91.5 -20h-52v-278h-102v0zM150 616v-242h49q62 0 73 33.5t11 86.5q0 50 -10 86t-70 36h-53v0z" />
    <glyph glyph-name="Q" unicode="Q" horiz-adv-x="426" 
d="M42 168v376q0 82 49 125.5t109 47.5q3 1 6.5 1h6.5h6.5t6.5 -1q60 -4 109 -47.5t49 -125.5v-376q0 -21 -3.5 -39t-11.5 -34l63 -51l-52 -62l-60 49q-23 -19 -50.5 -27.5t-56.5 -8.5h-6.5t-6.5 1q-60 4 -109 47t-49 125v0zM144 544v-376q0 -37 20.5 -54.5t48.5 -17.5
q6 0 11.5 1t10.5 3l-46 37l52 62l41 -33v2v376q0 37 -20.5 54.5t-48.5 17.5t-48.5 -17.5t-20.5 -54.5v0z" />
    <glyph glyph-name="R" unicode="R" horiz-adv-x="426" 
d="M48 0v712h164q91 0 135.5 -52.5t44.5 -156.5q0 -61 -19.5 -106t-68.5 -72l110 -325h-108l-95 304h-61v-304h-102v0zM150 616v-222h58q53 0 67.5 29t14.5 82q0 54 -15.5 82.5t-71.5 28.5h-53v0z" />
    <glyph glyph-name="S" unicode="S" horiz-adv-x="406" 
d="M378 557v-50h-102v23q0 35 -16.5 60.5t-55.5 25.5q-42 0 -55.5 -28.5t-13.5 -63.5q0 -39 8 -58t42 -34q2 -1 4 -1.5t4 -1.5l78 -31q68 -25 87.5 -71t19.5 -124q0 -90 -38.5 -149t-137.5 -59q-74 0 -124 48t-50 120v38h102v-32q0 -28 16.5 -50.5t55.5 -22.5q52 0 63 28.5
t11 77.5q0 51 -8 70t-36 32q-3 1 -7 2.5t-8 3.5l-73 30q-66 27 -88.5 71.5t-22.5 111.5q0 81 43.5 138t131.5 57q74 0 120 -47.5t50 -105.5v-4v-4v0z" />
    <glyph glyph-name="T" unicode="T" horiz-adv-x="332" 
d="M115 0v616h-118v96h338v-96h-118v-616h-102v0z" />
    <glyph glyph-name="U" unicode="U" horiz-adv-x="426" 
d="M378 712v-552q0 -70 -48.5 -117.5t-116.5 -47.5t-116.5 47.5t-48.5 117.5v552h102v-542q0 -37 18 -55.5t45 -18.5t45 18.5t18 55.5v542h102v0z" />
    <glyph glyph-name="V" unicode="V" horiz-adv-x="407" 
d="M394 712l-146 -712h-90l-145 712h108l81 -497h2l82 497h108v0z" />
    <glyph glyph-name="W" unicode="W" horiz-adv-x="593" 
d="M577 712l-106 -712h-96l-78 462h-2l-77 -462h-96l-106 712h108l51 -452h2l80 452h78l83 -463h2l49 463h108v0z" />
    <glyph glyph-name="X" unicode="X" horiz-adv-x="389" 
d="M-2 0l144 373l-133 339h108l77 -211l78 211h108l-136 -339l147 -373h-108l-89 240l-88 -240h-108v0z" />
    <glyph glyph-name="Y" unicode="Y" horiz-adv-x="388" 
d="M143 0v301l-140 411h108l82 -283h2l82 283h108l-140 -411v-301h-102v0z" />
    <glyph glyph-name="Z" unicode="Z" horiz-adv-x="333" 
d="M15 0v90l192 526h-182v96h293v-81l-196 -535h196v-96h-303v0z" />
    <glyph glyph-name="bracketleft" unicode="[" horiz-adv-x="222" 
d="M214 712v-60h-66v-692h66v-60h-156v812h156v0z" />
    <glyph glyph-name="backslash" unicode="\" horiz-adv-x="222" 
d="M85 718l132 -724h-80l-132 724h80v0z" />
    <glyph glyph-name="bracketright" unicode="]" horiz-adv-x="222" 
d="M8 -100v60h66v692h-66v60h156v-812h-156v0z" />
    <glyph glyph-name="asciicircum" unicode="^" horiz-adv-x="600" 
d="M50 283l217 429h66l217 -429h-80l-170 339l-170 -339h-80v0z" />
    <glyph glyph-name="underscore" unicode="_" horiz-adv-x="500" 
d="M0 -125v50h500v-50h-500v0z" />
    <glyph glyph-name="grave" unicode="`" 
d="M68 715l90 -141h-66l-132 141h108v0z" />
    <glyph glyph-name="a" unicode="a" horiz-adv-x="370" 
d="M235 0v52h-2l-6 -8l-6 -8q-17 -20 -36 -30.5t-50 -10.5q-7 0 -14.5 1t-15.5 2q-30 7 -55 35.5t-25 95.5q0 87 32.5 129.5t128.5 42.5q7 0 14.5 -0.5t15.5 -1.5q4 0 9 -0.5t10 -0.5v53q0 26 -11 43t-40 17q-19 0 -36 -13t-22 -38h-99q2 34 14 62t32 48t48.5 31.5
t62.5 11.5q64 0 108.5 -40t44.5 -120v-353h-102v0zM235 149v69q-6 1 -11 2t-10 1h-3.5h-3.5q-33 0 -56.5 -15.5t-23.5 -56.5q0 -29 14 -47t39 -18q26 0 40.5 17t14.5 48v0z" />
    <glyph glyph-name="b" unicode="b" horiz-adv-x="389" 
d="M42 0v712h102v-251h2q17 25 40.5 38.5t53.5 13.5q37 0 57.5 -13t33.5 -33q10 -16 13 -42t3 -81v-193q0 -42 -4 -67t-13 -42q-13 -25 -35.5 -36t-53.5 -11q-32 0 -50.5 10.5t-34.5 26.5q-3 4 -6 7t-6 7v-46h-102v0zM245 165v186q0 24 -10.5 42t-39.5 18q-22 0 -36.5 -15.5
t-14.5 -39.5v-197q0 -28 14 -45.5t37 -17.5q26 0 38 19t12 50v0z" />
    <glyph glyph-name="c" unicode="c" horiz-adv-x="370" 
d="M150 353v-207q0 -24 13.5 -37t36.5 -13q24 0 34 12t14 26q1 3 1.5 6.5t0.5 6.5h102q0 -31 -10.5 -59.5t-30.5 -48.5q-20 -21 -48 -32.5t-63 -11.5q-46 0 -80.5 19.5t-52.5 52.5q-10 20 -14.5 46t-4.5 57v167q0 31 4.5 57.5t14.5 45.5q18 33 52.5 53t80.5 20
q71 0 111.5 -45.5t40.5 -116.5h-102q0 31 -13.5 45.5t-36.5 14.5t-36.5 -14.5t-13.5 -43.5v0z" />
    <glyph glyph-name="d" unicode="d" horiz-adv-x="389" 
d="M245 0v46q-3 -4 -6 -7t-6 -7q-16 -16 -34.5 -26.5t-50.5 -10.5q-31 0 -53 11t-36 36q-9 17 -13 42t-4 67v193q0 55 3 81t13 42q13 20 33.5 33t57.5 13q30 0 54 -13.5t40 -38.5h2v251h102v-712h-102v0zM144 351v-186q0 -31 12 -50t38 -19q23 0 37 17.5t14 45.5v197
q0 24 -14.5 39.5t-36.5 15.5q-29 0 -39.5 -18t-10.5 -42v0z" />
    <glyph glyph-name="e" unicode="e" horiz-adv-x="370" 
d="M337 215h-202v-69q0 -24 13.5 -37t36.5 -13q24 0 34 12t14 26q1 3 1.5 6.5t0.5 6.5h102q0 -31 -10.5 -59.5t-30.5 -48.5q-20 -21 -48 -32.5t-63 -11.5q-46 0 -80.5 19.5t-52.5 52.5q-10 20 -14.5 46t-4.5 57v167q0 31 4.5 57.5t14.5 45.5q18 33 52.5 53t80.5 20
q71 0 111.5 -45.5t40.5 -112.5v-140v0zM135 353v-58h100v58q0 29 -13.5 43.5t-36.5 14.5t-36.5 -14.5t-13.5 -43.5v0z" />
    <glyph glyph-name="f" unicode="f" horiz-adv-x="222" 
d="M55 0v427h-50v80h50v69q0 74 41 105t90 31h47v-96h-46q-14 0 -22 -9t-8 -26v-74h76v-80h-76v-427h-102v0z" />
    <glyph glyph-name="g" unicode="g" horiz-adv-x="389" 
d="M42 -59h102v-1.5v-2.5q3 -17 16.5 -31t37.5 -14q25 0 36 15.5t11 39.5v99h-2q-16 -25 -40 -38t-55 -13t-53 11t-36 36q-9 17 -13 42t-4 67v193q0 55 3 81t13 42q13 20 33.5 33t57.5 13q31 0 49.5 -10.5t33.5 -27.5l6.5 -6.5t6.5 -7.5v46h102v-569q0 -5 -0.5 -11.5
t-1.5 -12.5q-7 -47 -43.5 -85.5t-107.5 -38.5q-9 0 -18 1t-18 3q-40 9 -74 43.5t-42 104.5v-1zM144 342v-186q0 -24 10.5 -42t39.5 -18q22 0 36.5 15.5t14.5 39.5v197q0 28 -14 45.5t-37 17.5q-26 0 -38 -19t-12 -50v0z" />
    <glyph glyph-name="h" unicode="h" horiz-adv-x="389" 
d="M42 0v712h102v-254h2q16 24 38.5 39.5t57.5 15.5h4h4q36 -3 66.5 -31t30.5 -93v-389h-102v351q0 28 -13 44t-37 16q-28 0 -39.5 -18t-11.5 -52v-341h-102v0z" />
    <glyph glyph-name="i" unicode="i" 
d="M42 0v507h102v-507h-102v0zM42 610v102h102v-102h-102v0z" />
    <glyph glyph-name="j" unicode="j" 
d="M42 -16v523h102v-561q0 -74 -47 -112t-118 -38l-1 95q37 1 50.5 19.5t13.5 74.5v-1zM42 610v102h102v-102h-102v0z" />
    <glyph glyph-name="k" unicode="k" horiz-adv-x="389" 
d="M42 0v712h102v-426h2l123 221h102l-121 -206l146 -301h-111l-92 219l-49 -77v-142h-102v0z" />
    <glyph glyph-name="l" unicode="l" 
d="M36 136v576h102v-569q0 -28 10.5 -39t39.5 -14v-96q-70 1 -111 27.5t-41 114.5v0z" />
    <glyph glyph-name="m" unicode="m" horiz-adv-x="592" 
d="M42 0v507h102v-49h2q16 24 38.5 39.5t57.5 15.5q32 0 53.5 -15t35.5 -33q0 -1 1 -1.5t1 -1.5q19 21 42.5 36t63.5 15q5 0 10 -0.5t10 -1.5q34 -6 62.5 -34.5t28.5 -87.5v-389h-102v351q0 28 -13 44t-37 16q-28 0 -39.5 -18t-11.5 -52v-341h-102v351q0 28 -13 44t-37 16
q-28 0 -39.5 -18t-11.5 -52v-341h-102v0z" />
    <glyph glyph-name="n" unicode="n" horiz-adv-x="389" 
d="M42 0v507h102v-49h2q16 24 38.5 39.5t57.5 15.5h4h4q36 -3 66.5 -31t30.5 -93v-389h-102v351q0 28 -13 44t-37 16q-28 0 -39.5 -18t-11.5 -52v-341h-102v0z" />
    <glyph glyph-name="o" unicode="o" horiz-adv-x="370" 
d="M33 170v167q0 31 4.5 57.5t14.5 45.5q18 33 52.5 53t80.5 20q47 0 81 -20t52 -53q11 -19 15 -45.5t4 -57.5v-167q0 -31 -4 -57t-15 -46q-18 -33 -52 -52.5t-81 -19.5q-46 0 -80.5 19.5t-52.5 52.5q-10 20 -14.5 46t-4.5 57v0zM135 353v-199q0 -28 13.5 -43t36.5 -15
t36.5 15t13.5 43v199q0 29 -13.5 43.5t-36.5 14.5t-36.5 -14.5t-13.5 -43.5v0z" />
    <glyph glyph-name="p" unicode="p" horiz-adv-x="389" 
d="M42 -205v712h102v-46q3 4 6 7t6 7q16 16 34.5 27t50.5 11q31 0 53.5 -11.5t35.5 -36.5q9 -16 13 -41.5t4 -67.5v-193q0 -55 -3 -81t-13 -42q-13 -20 -33.5 -32.5t-57.5 -12.5q-30 0 -53.5 13t-40.5 38h-2v-251h-102v0zM245 156v186q0 31 -12 50t-38 19q-23 0 -37 -17.5
t-14 -45.5v-197q0 -24 14.5 -39.5t36.5 -15.5q29 0 39.5 18t10.5 42v0z" />
    <glyph glyph-name="q" unicode="q" horiz-adv-x="389" 
d="M245 -205v251h-2q-16 -25 -40 -38t-54 -13q-37 0 -57.5 12.5t-33.5 32.5q-10 16 -13 42t-3 81v193q0 42 4 67.5t13 41.5q14 25 36 36.5t53 11.5q32 0 50.5 -11t34.5 -27q3 -4 6 -7t6 -7v46h102v-712h-102v0zM144 342v-186q0 -24 10.5 -42t39.5 -18q22 0 36.5 15.5
t14.5 39.5v197q0 28 -14 45.5t-37 17.5q-26 0 -38 -19t-12 -50v0z" />
    <glyph glyph-name="r" unicode="r" horiz-adv-x="278" 
d="M42 0v507h102v-54q8 7 15 13t15 11q22 17 46.5 26.5t58.5 9.5v-108q-7 3 -15 4.5t-16 1.5q-7 0 -15 -1t-16 -4q-28 -8 -50.5 -32.5t-22.5 -72.5v-301h-102v0z" />
    <glyph glyph-name="s" unicode="s" horiz-adv-x="352" 
d="M323 365h-96q-1 26 -16.5 39t-35.5 13q-24 0 -37 -15.5t-13 -35.5q0 -14 7.5 -27.5t35.5 -24.5l60 -24q57 -22 78.5 -60t21.5 -83q0 -63 -43 -107.5t-109 -44.5q-60 0 -104.5 38.5t-47.5 113.5h96v-1.5v-1.5q4 -20 15.5 -37t39.5 -17q22 0 39.5 15t17.5 40q0 21 -11 36
t-40 26l-49 18q-48 18 -75.5 53.5t-27.5 86.5q0 65 44.5 106.5t105.5 41.5q62 0 102.5 -42.5t41.5 -105.5v0z" />
    <glyph glyph-name="t" unicode="t" horiz-adv-x="204" 
d="M42 507v154h102v-154h63v-80h-63v-281q0 -35 14.5 -42.5t48.5 -7.5v-96h-42q-59 0 -87 29.5t-34 65.5q-1 6 -1.5 12t-0.5 12v308h-51v80h51v0z" />
    <glyph glyph-name="u" unicode="u" horiz-adv-x="389" 
d="M347 507v-507h-102v49h-2q-16 -24 -38.5 -39t-57.5 -15h-4h-4q-36 3 -66.5 30.5t-30.5 92.5v389h102v-351q0 -28 13 -44t37 -16q29 0 40 18t11 52v341h102v0z" />
    <glyph glyph-name="v" unicode="v" horiz-adv-x="352" 
d="M353 507l-132 -507h-90l-132 507h108l68 -324h2l68 324h108v0z" />
    <glyph glyph-name="w" unicode="w" horiz-adv-x="536" 
d="M535 507l-120 -507h-90l-56 301h-2l-56 -301h-90l-120 507h108l62 -315h2l57 315h80l54 -315h2l61 315h108v0z" />
    <glyph glyph-name="x" unicode="x" horiz-adv-x="332" 
d="M-11 0l125 259l-119 248h108l63 -144l63 144h108l-121 -248l127 -259h-108l-69 155l-69 -155h-108v0z" />
    <glyph glyph-name="y" unicode="y" horiz-adv-x="352" 
d="M-1 507h108l70 -316h2l69 316h105l-146 -595q-16 -67 -55.5 -91.5t-85.5 -24.5l-28 -1v96h23q23 1 36 11t24 49q4 14 8 31.5t9 40.5l-139 484v0z" />
    <glyph glyph-name="z" unicode="z" horiz-adv-x="315" 
d="M17 0v81l165 336h-152v90h268v-81l-165 -330h165v-96h-281v0z" />
    <glyph glyph-name="braceleft" unicode="{" horiz-adv-x="222" 
d="M3 277v60q28 0 46 31.5t18 80.5v152q0 53 29 82t69 29h54v-60h-18q-24 0 -34 -17.5t-10 -48.5v-151q0 -50 -15 -78.5t-32 -40.5q-6 -4 -11.5 -6t-10.5 -3v-2q5 -1 10.5 -3t11.5 -6q17 -11 32 -39.5t15 -80.5v-149q0 -31 10 -48.5t34 -17.5l18 -1v-60h-54q-40 1 -69 30
t-29 81v151q0 50 -18 82.5t-46 32.5v0z" />
    <glyph glyph-name="bar" unicode="|" horiz-adv-x="222" 
d="M71 -250v1000h80v-1000h-80v0z" />
    <glyph glyph-name="braceright" unicode="}" horiz-adv-x="222" 
d="M219 337v-60q-28 0 -46 -32.5t-18 -82.5v-151q0 -52 -29 -81t-69 -29l-54 -1v60h18q24 1 34 18.5t10 48.5v149q0 52 15 80.5t32 39.5q6 4 11.5 6t10.5 3v2q-5 1 -10.5 3t-11.5 6q-17 12 -32 40.5t-15 78.5v151q0 31 -10 48.5t-34 17.5h-18v60h54q40 0 69 -29t29 -82v-152
q0 -49 18 -80.5t46 -31.5v0z" />
    <glyph glyph-name="asciitilde" unicode="~" horiz-adv-x="600" 
d="M495 330l36 -65l-2 -4l-2 -4q-17 -30 -45.5 -54.5t-75.5 -24.5q-21 0 -44.5 7t-47.5 17q-5 2 -9.5 4.5t-9.5 4.5q-2 1 -4.5 2t-4.5 2q-3 1 -5 2t-5 2q-23 11 -44.5 19.5t-38.5 8.5q-28 0 -47.5 -20t-35.5 -43q-1 -2 -2.5 -4t-2.5 -4l-36 64l2 4l2 4q17 30 45.5 54.5
t75.5 24.5q21 0 44.5 -7t47.5 -17q5 -2 9.5 -4.5t9.5 -4.5q2 -1 4.5 -2t4.5 -2q3 -1 5 -2t5 -2q23 -11 44.5 -19.5t38.5 -8.5q28 0 48 21t36 46q1 1 2 2.5t2 2.5v0z" />
    <glyph glyph-name="exclamdown" unicode="&#xa1;" horiz-adv-x="240" 
d="M56 -205l39 536h50l39 -536h-128v0zM69 405v102h102v-102h-102v0z" />
    <glyph glyph-name="cent" unicode="&#xa2;" horiz-adv-x="372" 
d="M164 -90v84q-38 4 -66.5 23t-44.5 47q-10 20 -14.5 46t-4.5 57v172q0 31 4.5 57.5t14.5 45.5q16 29 44.5 48t66.5 23v75h41v-75q62 -5 97.5 -49.5t35.5 -112.5h-102q0 26 -8 40.5t-23 19.5v-315q16 6 22.5 19t8.5 28v2v2h102q0 -33 -10.5 -61.5t-30.5 -48.5
q-17 -18 -40 -29t-52 -13v-85h-41v0zM164 96v315q-6 -2 -11 -7t-9 -12t-6 -15.5t-2 -19.5v-215q0 -18 7.5 -29.5t20.5 -16.5v0z" />
    <glyph glyph-name="sterling" unicode="&#xa3;" horiz-adv-x="372" 
d="M13 298v71h55q-5 9 -9 17t-7 16q-11 25 -16.5 52.5t-5.5 66.5q0 79 38 138t124 59q8 0 16.5 -1t16.5 -3q43 -10 79 -48.5t36 -110.5v-45h-96v40q0 27 -11.5 49.5t-43.5 22.5q-35 0 -49 -30t-14 -72q0 -10 0.5 -20t2.5 -20q4 -30 12 -58.5t17 -52.5h116v-71h-93l2 -6l2 -6
q6 -15 10 -32.5t4 -43.5q0 -30 -9 -57t-23 -52q6 -1 13.5 -2.5t15.5 -2.5l14 -2l14 -2t13 -1.5t12 -0.5q8 0 15 0.5t14 3.5q9 3 18 9.5t19 18.5l68 -69q-23 -32 -49.5 -45t-61.5 -13q-14 0 -36 2.5t-46 6.5h-4t-4 1q-22 3 -43 5.5t-37 2.5q-5 0 -11 -0.5t-12 -1.5
q-11 -1 -21 -3.5t-19 -4.5q-5 -2 -9 -3t-7 -2v85q3 2 8 4t11 4q5 2 11 4t11 4q6 1 12 2.5t11 1.5q13 19 20 41.5t7 45.5q0 15 -3 33t-8 37q-2 10 -5 19.5t-7 18.5h-78v0z" />
    <glyph glyph-name="currency" unicode="&#xa4;" horiz-adv-x="372" 
d="M4 214l42 42q-16 17 -25.5 43.5t-9.5 56.5t9 56.5t25 43.5l-41 42l41 41l41 -42q17 15 43.5 24.5t56.5 9.5t56.5 -9t44.5 -25l41 42l40 -41l-41 -41q16 -18 25 -44.5t9 -56.5q0 -31 -9.5 -57t-24.5 -43l41 -41l-41 -41l-41 41q-17 -16 -43.5 -25t-56.5 -9t-56.5 9.5
t-43.5 25.5l-41 -42l-41 40v0zM77 356q0 -45 32 -77t77 -32t77 32t32 77t-32 77t-77 32t-77 -32t-32 -77v0z" />
    <glyph glyph-name="yen" unicode="&#xa5;" horiz-adv-x="372" 
d="M138 0v172h-114v66h114v49h-114v66h98l-118 359h102l79 -283h2l79 283h102l-118 -359h98v-66h-114v-49h114v-66h-114v-172h-96v0z" />
    <glyph glyph-name="brokenbar" unicode="&#xa6;" horiz-adv-x="222" 
d="M71 -175v350h80v-350h-80v0zM71 325v350h80v-350h-80v0z" />
    <glyph glyph-name="section" unicode="&#xa7;" horiz-adv-x="370" 
d="M325 581v-46h-85v42q0 23 -12.5 42t-37.5 19q-31 0 -41.5 -21.5t-10.5 -51.5q0 -24 2.5 -37t12.5 -23q5 -6 13 -11.5t19 -12.5l97 -63q3 -2 5.5 -4t5.5 -3q29 -21 36.5 -50.5t7.5 -101.5q0 -64 -9 -94t-51 -53q-6 -4 -12.5 -7.5t-14.5 -6.5q6 -3 12 -6.5t11 -6.5
q34 -21 43 -48t9 -79q0 -42 -5 -67t-20 -47q-17 -24 -46.5 -38.5t-61.5 -15.5h-3.5h-2.5q-62 0 -94 30.5t-42 67.5q-4 12 -5.5 23.5t-1.5 21.5v41h85v-41q0 -25 15.5 -44t39.5 -19q31 0 44 19t13 59q0 34 -5 48t-20 25q-2 1 -3.5 2t-3.5 2l-118 72q-40 24 -48.5 58t-8.5 104
q0 86 18.5 120t73.5 51q-2 1 -4.5 2.5t-4.5 2.5q-43 23 -53 51t-10 78q0 79 41 116.5t96 37.5h4h4q48 -3 87.5 -37t39.5 -100v0zM135 312v-99q0 -22 14.5 -37.5t35.5 -15.5q20 0 35 15.5t15 37.5v99q0 22 -15 37.5t-35 15.5q-21 0 -35.5 -15.5t-14.5 -37.5v0z" />
    <glyph glyph-name="dieresis" unicode="&#xa8;" 
d="M-33 586v102h90v-102h-90v0zM129 586v102h90v-102h-90v0z" />
    <glyph glyph-name="copyright" unicode="&#xa9;" horiz-adv-x="800" 
d="M38 356q0 150 106 256t256 106t256 -106t106 -256t-106 -255.5t-256 -105.5t-256 105.5t-106 255.5v0zM690 356q0 122 -85 209t-205 87t-205 -87t-85 -209t85 -209t205 -87t205 87t85 209v0zM524 287h66q-13 -70 -62 -113t-115 -43q-97 0 -155.5 65.5t-58.5 159.5
q0 98 56 162t155 64q68 0 119 -39t61 -112h-66q-8 35 -39 60t-74 25q-67 0 -103.5 -46.5t-36.5 -111.5q0 -62 39 -111.5t103 -49.5q43 0 73.5 26.5t37.5 63.5v0z" />
    <glyph glyph-name="ordfeminine" unicode="&#xaa;" horiz-adv-x="240" 
d="M154 410v31h-2q-2 -2 -3.5 -4.5t-3.5 -4.5q-11 -12 -23 -19t-33 -7q-5 0 -11 0.5t-12 2.5q-19 5 -35.5 22.5t-16.5 56.5q0 53 23 79.5t85 26.5q7 0 14.5 -0.5t17.5 -1.5v24q0 15 -7.5 25.5t-25.5 10.5q-13 0 -24 -6.5t-13 -23.5h-66q2 23 9.5 40.5t20.5 29.5
q14 12 32.5 19t40.5 7q41 0 73 -24.5t32 -71.5v-212h-72v0zM154 504v37q-5 1 -9.5 1.5t-8.5 0.5q-22 0 -36 -9.5t-14 -34.5q0 -13 8 -21t24 -8q17 0 26.5 10t9.5 24v0z" />
    <glyph glyph-name="guillemotleft" unicode="&#xab;" horiz-adv-x="426" 
d="M213 479v-102l-101 -100l101 -100v-102l-203 202l203 202v0zM398 479v-102l-101 -100l101 -100v-102l-203 202l203 202v0z" />
    <glyph glyph-name="logicalnot" unicode="&#xac;" horiz-adv-x="600" 
d="M473 113v200h-426v80h506v-280h-80v0z" />
    <glyph glyph-name="sfthyphen" unicode="&#xad;" horiz-adv-x="500" 
 />
    <glyph glyph-name="registered" unicode="&#xae;" horiz-adv-x="800" 
d="M38 356q0 150 106 256t256 106t256 -106t106 -256t-106 -255.5t-256 -105.5t-256 105.5t-106 255.5v0zM690 356q0 122 -85 209t-205 87t-205 -87t-85 -209t85 -209t205 -87t205 87t85 209v0zM263 145v422h160q73 0 109 -29.5t36 -89.5q0 -59 -32 -86t-76 -32l121 -185
h-80l-121 183h-51v-183h-66v0zM329 507v-119h75q49 0 73.5 14.5t24.5 48.5q0 29 -21.5 42.5t-55.5 13.5h-96v0z" />
    <glyph glyph-name="overstore" unicode="&#xaf;" 
 />
    <glyph glyph-name="glyph113" unicode="&#xb0;" horiz-adv-x="260" 
d="M18 606q0 47 33 79.5t79 32.5q47 0 79.5 -32.5t32.5 -79.5q0 -46 -32.5 -79t-79.5 -33q-46 0 -79 33t-33 79v0zM69 606q0 -25 18 -43t43 -18q26 0 43.5 18t17.5 43q0 26 -17.5 43.5t-43.5 17.5q-25 0 -43 -17.5t-18 -43.5v0z" />
    <glyph glyph-name="plusminus" unicode="&#xb1;" horiz-adv-x="600" 
d="M47 0v80h506v-80h-506v0zM260 104v161h-213v80h213v161h80v-161h213v-80h-213v-161h-80v0z" />
    <glyph glyph-name="twosuperior" unicode="&#xb2;" horiz-adv-x="242" 
d="M11 584v36q0 42 32 70t78 28q45 0 77.5 -25.5t32.5 -65.5v-33q0 -20 -3.5 -33t-9.5 -25q-3 -5 -5 -9t-5 -8l-95 -160h118v-72h-220v54l128 212q5 9 8.5 19t3.5 20v23q0 13 -7.5 20.5t-17.5 9.5q-1 1 -2.5 1h-3.5q-11 0 -20 -8t-9 -23v-31h-80v0z" />
    <glyph glyph-name="threesuperior" unicode="&#xb3;" horiz-adv-x="242" 
d="M100 474v66q29 0 39.5 6.5t11.5 27.5v42q0 13 -8 21.5t-22 8.5q-12 0 -19 -6.5t-9 -13.5q-1 -3 -1.5 -5.5t-0.5 -4.5v-26h-80v32q0 42 31.5 69t80.5 27q53 0 79.5 -29.5t28.5 -64.5v-3.5v-2.5v-41q0 -22 -7 -38.5t-34 -30.5q24 -14 32.5 -31t8.5 -42v-51v-4v-4
q-3 -35 -29 -64t-81 -29h-2.5h-3.5q-39 1 -71.5 22t-32.5 72v34h80v-23q0 -15 8.5 -24t21.5 -9t21.5 9.5t8.5 20.5v52q0 23 -10 30t-41 7v0z" />
    <glyph glyph-name="acute" unicode="&#xb4;" 
d="M28 574l90 141h108l-132 -141h-66v0z" />
    <glyph glyph-name="mu" unicode="&#xb5;" horiz-adv-x="389" 
d="M347 507v-507h-102v49h-2q-5 -11 -11 -19.5t-13 -14.5l-4 -4l-4 -4q-9 -7 -17.5 -9.5t-16.5 -2.5q-11 0 -18.5 2.5t-12.5 6.5h-2v-209h-102v712h102v-351q0 -28 13 -44t37 -16q29 0 40 18t11 52v341h102v0z" />
    <glyph glyph-name="paragraph" unicode="&#xb6;" horiz-adv-x="444" 
d="M182 -205v539q-65 0 -119.5 54t-54.5 132q0 98 60.5 145t157.5 47h172v-917h-72v866h-72v-866h-72v0z" />
    <glyph glyph-name="middot" unicode="&#xb7;" 
 />
    <glyph glyph-name="cedilla" unicode="&#xb8;" 
d="M20 -86l65 86h46l-46 -60q4 1 8 1.5t8 0.5q3 1 7 1h8q39 0 58 -17t24 -38q2 -5 2.5 -10t0.5 -10q0 -41 -30 -62t-66 -27q-7 -1 -13.5 -1.5t-13.5 -0.5q-21 0 -39.5 3.5t-32.5 8.5q-6 2 -11 3.5t-9 3.5l16 41q16 -5 32.5 -9.5t32.5 -4.5q4 0 8 0.5t9 0.5q14 3 25.5 12
t11.5 28q0 17 -14 27.5t-31 10.5q-7 0 -13.5 -0.5t-12.5 -2.5q-3 -1 -6.5 -2t-6.5 -2l-17 19v0z" />
    <glyph glyph-name="onesuperior" unicode="&#xb9;" horiz-adv-x="242" 
d="M93 287v353l-66 -43v72l66 43h80v-425h-80v0z" />
    <glyph glyph-name="ordmasculine" unicode="&#xba;" horiz-adv-x="240" 
d="M18 505v114q0 43 28 71t74 28q47 0 74.5 -28t27.5 -71v-114q0 -43 -27.5 -71t-74.5 -28q-46 0 -74 28t-28 71v0zM90 617v-111q0 -16 8 -25t22 -9t22 9t8 25v111q0 17 -8 26t-22 9t-22 -9t-8 -26v0z" />
    <glyph glyph-name="guillemotright" unicode="&#xbb;" horiz-adv-x="426" 
d="M28 75v102l101 100l-101 100v102l203 -202l-203 -202v0zM213 75v102l101 100l-101 100v102l203 -202l-203 -202v0z" />
    <glyph glyph-name="onequarter" unicode="&#xbc;" horiz-adv-x="555" 
d="M18 -17l437 746h60l-437 -746h-60v0zM434 0v62h-143v62l98 303h80l-94 -299h59v115h80v-115h30v-66h-30v-62h-80v0zM77 287v353l-66 -43v72l66 43h80v-425h-80v0z" />
    <glyph glyph-name="onehalf" unicode="&#xbd;" horiz-adv-x="555" 
d="M18 -17l437 746h60l-437 -746h-60v0zM322 0v54l130 212q5 9 8.5 19t3.5 20v23q0 13 -7.5 20.5t-17.5 9.5q-1 1 -2.5 1h-3.5q-13 0 -22 -8t-9 -23v-31h-80v36q0 42 32 70t80 28q45 0 77.5 -25.5t32.5 -65.5v-33q0 -20 -3.5 -33t-9.5 -25q-3 -5 -5 -9t-5 -8l-95 -160h118
v-72h-222v0zM77 287v353l-66 -43v72l66 43h80v-425h-80v0z" />
    <glyph glyph-name="threequarters" unicode="&#xbe;" horiz-adv-x="555" 
d="M37 -17l437 746h60l-437 -746h-60v0zM434 0v62h-143v62l98 303h80l-94 -299h59v115h80v-115h30v-66h-30v-62h-80v0zM100 474v66q29 0 39.5 6.5t11.5 27.5v42q0 13 -8 21.5t-22 8.5q-12 0 -19 -6.5t-9 -13.5q-1 -3 -1.5 -5.5t-0.5 -4.5v-26h-80v32q0 42 31.5 69t80.5 27
q53 0 79.5 -29.5t28.5 -64.5v-3.5v-2.5v-41q0 -22 -7 -38.5t-34 -30.5q24 -14 32.5 -31t8.5 -42v-51v-4v-4q-3 -35 -29 -64t-81 -29h-2.5h-3.5q-39 1 -71.5 22t-32.5 72v34h80v-23q0 -15 8.5 -24t21.5 -9t21.5 9.5t8.5 20.5v52q0 23 -10 30t-41 7v0z" />
    <glyph glyph-name="questiondown" unicode="&#xbf;" horiz-adv-x="370" 
d="M338 0v-59q0 -62 -45 -106.5t-109 -44.5q-37 0 -67.5 15t-50.5 42q-5 6 -9 12t-7 12q-10 19 -14 41t-4 57q0 50 3 73.5t13 39.5l69 118q7 12 12 25t5 26v80h102v-93q0 -22 -7 -42t-18 -39l-64 -104q-6 -10 -9 -22t-4 -24v-5.5v-5.5v-54q0 -20 14.5 -35t35.5 -15h4.5
t4.5 1q16 3 29.5 15.5t13.5 34.5v57h102v0zM236 507v-102h-102v102h102v0z" />
    <glyph glyph-name="Agrave" unicode="&#xc0;" horiz-adv-x="407" 
d="M2 0l159 712h85l159 -712h-102l-30 153h-139l-30 -153h-102v0zM254 249l-50 258h-2l-50 -258h102v0zM179 885l90 -141h-66l-132 141h108v0z" />
    <glyph glyph-name="Aacute" unicode="&#xc1;" horiz-adv-x="407" 
d="M2 0l159 712h85l159 -712h-102l-30 153h-139l-30 -153h-102v0zM254 249l-50 258h-2l-50 -258h102v0zM139 744l90 141h108l-132 -141h-66v0z" />
    <glyph glyph-name="Acircumflex" unicode="&#xc2;" horiz-adv-x="407" 
d="M2 0l159 712h85l159 -712h-102l-30 153h-139l-30 -153h-102v0zM254 249l-50 258h-2l-50 -258h102v0zM59 744l98 141h94l98 -141h-78l-67 95l-67 -95h-78v0z" />
    <glyph glyph-name="Atilde" unicode="&#xc3;" horiz-adv-x="407" 
d="M2 0l159 712h85l159 -712h-102l-30 153h-139l-30 -153h-102v0zM254 249l-50 258h-2l-50 -258h102v0zM323 869h51q-9 -46 -31 -78.5t-70 -32.5q-11 0 -30 5.5t-39 12.5q-2 1 -3.5 1.5t-2.5 0.5q-22 8 -41 14t-28 6q-21 0 -32 -12.5t-12 -32.5h-51q9 46 31 78.5t70 32.5
q11 0 30 -5.5t39 -12.5q2 0 3.5 -0.5t2.5 -1.5q22 -7 41.5 -13.5t27.5 -6.5q21 0 32 13t12 32v0z" />
    <glyph glyph-name="Adieresis" unicode="&#xc4;" horiz-adv-x="407" 
d="M2 0l159 712h85l159 -712h-102l-30 153h-139l-30 -153h-102v0zM254 249l-50 258h-2l-50 -258h102v0zM78 756v102h90v-102h-90v0zM240 756v102h90v-102h-90v0z" />
    <glyph glyph-name="Aring" unicode="&#xc5;" horiz-adv-x="407" 
d="M2 0l159 712h85l159 -712h-102l-30 153h-139l-30 -153h-102v0zM254 249l-50 258h-2l-50 -258h102v0zM102 835q0 42 30 72t72 30t72 -30.5t30 -71.5q0 -42 -30 -72t-72 -30t-72 30.5t-30 71.5v0zM143 835q0 -25 18 -43t43 -18q26 0 43.5 18t17.5 43q0 26 -17.5 43.5
t-43.5 17.5q-25 0 -43 -17.5t-18 -43.5v0z" />
    <glyph glyph-name="AE" unicode="&#xc6;" horiz-adv-x="611" 
d="M2 0l202 712h389v-96h-202v-209h176v-96h-176v-209h202v-102h-304v153h-140l-39 -153h-108v0zM289 249v367h-24l-92 -367h116v0z" />
    <glyph glyph-name="Ccedilla" unicode="&#xc7;" horiz-adv-x="407" 
d="M131 -86l61 80q-3 1 -5.5 1.5t-5.5 0.5q-52 6 -95.5 43t-43.5 123v392q0 70 46 117t120 47q71 0 117.5 -48t46.5 -122v-40h-102v34q0 30 -17 52t-46 22q-38 0 -50.5 -23.5t-12.5 -59.5v-364q0 -31 14 -52t48 -21q4 0 8 0.5t8 1.5q18 4 33 20t15 50v35h102v-44
q0 -58 -37.5 -105t-95.5 -57l-43 -57q4 1 8 1.5t8 0.5q3 1 7 1h8q39 0 58 -17t24 -38q2 -5 2.5 -10t0.5 -10q0 -41 -30 -62t-66 -27q-7 -1 -13.5 -1.5t-13.5 -0.5q-21 0 -39.5 3.5t-32.5 8.5q-6 2 -11.5 3.5t-9.5 3.5l17 41q16 -5 32.5 -9.5t32.5 -4.5q4 0 8 0.5t9 0.5
q14 3 25.5 12t11.5 28q0 17 -14 27.5t-31 10.5q-7 0 -13.5 -0.5t-12.5 -2.5q-3 -1 -6.5 -2t-6.5 -2l-17 19v0z" />
    <glyph glyph-name="Egrave" unicode="&#xc8;" horiz-adv-x="370" 
d="M48 0v712h304v-96h-202v-209h176v-96h-176v-209h202v-102h-304v0zM170 885l90 -141h-66l-132 141h108v0z" />
    <glyph glyph-name="Eacute" unicode="&#xc9;" horiz-adv-x="370" 
d="M48 0v712h304v-96h-202v-209h176v-96h-176v-209h202v-102h-304v0zM130 744l90 141h108l-132 -141h-66v0z" />
    <glyph glyph-name="Ecircumflex" unicode="&#xca;" horiz-adv-x="370" 
d="M48 0v712h304v-96h-202v-209h176v-96h-176v-209h202v-102h-304v0zM50 744l98 141h94l98 -141h-78l-67 95l-67 -95h-78v0z" />
    <glyph glyph-name="Edieresis" unicode="&#xcb;" horiz-adv-x="370" 
d="M48 0v712h304v-96h-202v-209h176v-96h-176v-209h202v-102h-304v0zM69 756v102h90v-102h-90v0zM231 756v102h90v-102h-90v0z" />
    <glyph glyph-name="Igrave" unicode="&#xcc;" horiz-adv-x="204" 
d="M51 0v712h102v-712h-102v0zM77 885l90 -141h-66l-132 141h108v0z" />
    <glyph glyph-name="Iacute" unicode="&#xcd;" horiz-adv-x="204" 
d="M51 0v712h102v-712h-102v0zM37 744l90 141h108l-132 -141h-66v0z" />
    <glyph glyph-name="Icircumflex" unicode="&#xce;" horiz-adv-x="204" 
d="M51 0v712h102v-712h-102v0zM-43 744l98 141h94l98 -141h-78l-67 95l-67 -95h-78v0z" />
    <glyph glyph-name="Idieresis" unicode="&#xcf;" horiz-adv-x="204" 
d="M51 0v712h102v-712h-102v0zM-24 756v102h90v-102h-90v0zM138 756v102h90v-102h-90v0z" />
    <glyph glyph-name="Eth" unicode="&#xd0;" horiz-adv-x="426" 
d="M48 0v350h-48v66h48v296h151q86 0 132.5 -49t46.5 -135v-333q0 -99 -49 -147t-139 -48h-142v0zM150 616v-200h70v-66h-70v-254h47q43 0 61 21.5t18 67.5v343q0 42 -17 65t-62 23h-47v0z" />
    <glyph glyph-name="Ntilde" unicode="&#xd1;" horiz-adv-x="444" 
d="M44 0v712h98l154 -429h2v429h102v-712h-96l-156 428h-2v-428h-102v0zM341 869h51q-9 -46 -31 -78.5t-70 -32.5q-11 0 -30 5.5t-39 12.5q-2 1 -3.5 1.5t-2.5 0.5q-22 8 -41 14t-28 6q-21 0 -32 -12.5t-12 -32.5h-51q9 46 31 78.5t70 32.5q11 0 30 -5.5t39 -12.5
q2 0 3.5 -0.5t2.5 -1.5q22 -7 41.5 -13.5t27.5 -6.5q21 0 32 13t12 32v0z" />
    <glyph glyph-name="Ograve" unicode="&#xd2;" 
 />
    <glyph glyph-name="Oacute" unicode="&#xd3;" horiz-adv-x="426" 
d="M42 168v376q0 82 49 125.5t109 47.5q3 1 6.5 1h6.5h6.5t6.5 -1q60 -4 109 -47.5t49 -125.5v-376q0 -82 -49 -125t-109 -47q-3 -1 -6.5 -1h-6.5h-6.5t-6.5 1q-60 4 -109 47t-49 125v0zM144 544v-376q0 -37 20.5 -54.5t48.5 -17.5t48.5 17.5t20.5 54.5v376q0 37 -20.5 54.5
t-48.5 17.5t-48.5 -17.5t-20.5 -54.5v0zM148 744l90 141h108l-132 -141h-66v0z" />
    <glyph glyph-name="Ocircumflex" unicode="&#xd4;" horiz-adv-x="426" 
d="M42 168v376q0 82 49 125.5t109 47.5q3 1 6.5 1h6.5h6.5t6.5 -1q60 -4 109 -47.5t49 -125.5v-376q0 -82 -49 -125t-109 -47q-3 -1 -6.5 -1h-6.5h-6.5t-6.5 1q-60 4 -109 47t-49 125v0zM144 544v-376q0 -37 20.5 -54.5t48.5 -17.5t48.5 17.5t20.5 54.5v376q0 37 -20.5 54.5
t-48.5 17.5t-48.5 -17.5t-20.5 -54.5v0zM68 744l98 141h94l98 -141h-78l-67 95l-67 -95h-78v0z" />
    <glyph glyph-name="Otilde" unicode="&#xd5;" horiz-adv-x="426" 
d="M42 168v376q0 82 49 125.5t109 47.5q3 1 6.5 1h6.5h6.5t6.5 -1q60 -4 109 -47.5t49 -125.5v-376q0 -82 -49 -125t-109 -47q-3 -1 -6.5 -1h-6.5h-6.5t-6.5 1q-60 4 -109 47t-49 125v0zM144 544v-376q0 -37 20.5 -54.5t48.5 -17.5t48.5 17.5t20.5 54.5v376q0 37 -20.5 54.5
t-48.5 17.5t-48.5 -17.5t-20.5 -54.5v0zM332 869h51q-9 -46 -31 -78.5t-70 -32.5q-11 0 -30 5.5t-39 12.5q-2 1 -3.5 1.5t-2.5 0.5q-22 8 -41 14t-28 6q-21 0 -32 -12.5t-12 -32.5h-51q9 46 31 78.5t70 32.5q11 0 30 -5.5t39 -12.5q2 0 3.5 -0.5t2.5 -1.5q22 -7 41.5 -13.5
t27.5 -6.5q21 0 32 13t12 32v0z" />
    <glyph glyph-name="Odieresis" unicode="&#xd6;" horiz-adv-x="426" 
d="M42 168v376q0 82 49 125.5t109 47.5q3 1 6.5 1h6.5h6.5t6.5 -1q60 -4 109 -47.5t49 -125.5v-376q0 -82 -49 -125t-109 -47q-3 -1 -6.5 -1h-6.5h-6.5t-6.5 1q-60 4 -109 47t-49 125v0zM144 544v-376q0 -37 20.5 -54.5t48.5 -17.5t48.5 17.5t20.5 54.5v376q0 37 -20.5 54.5
t-48.5 17.5t-48.5 -17.5t-20.5 -54.5v0zM87 756v102h90v-102h-90v0zM249 756v102h90v-102h-90v0z" />
    <glyph glyph-name="multiply" unicode="&#xd7;" horiz-adv-x="600" 
d="M67 77l177 176l-177 177l57 56l176 -176l177 176l56 -56l-176 -177l176 -176l-56 -57l-177 177l-176 -177l-57 57v0z" />
    <glyph glyph-name="Oslash" unicode="&#xd8;" horiz-adv-x="426" 
d="M10 -16l50 103q-9 17 -13.5 37.5t-4.5 43.5v376q0 82 49 125.5t109 47.5q3 1 6.5 1h6.5h5.5h4.5q32 -2 61.5 -15t53.5 -37l40 84l38 -22l-50 -103q8 -16 13 -36.5t5 -44.5v-376q0 -82 -49 -125t-109 -47q-3 -1 -6.5 -1h-6.5h-4h-5q-32 2 -62.5 14t-53.5 37l-40 -84
l-38 22v0zM280 449l-136 -286q2 -34 22 -50.5t47 -16.5q28 0 48.5 17.5t20.5 54.5v281h-2v0zM146 262l136 287q-2 35 -22.5 51t-46.5 16q-28 0 -48.5 -17.5t-20.5 -54.5v-282h2v0z" />
    <glyph glyph-name="Ugrave" unicode="&#xd9;" horiz-adv-x="426" 
d="M378 712v-552q0 -70 -48.5 -117.5t-116.5 -47.5t-116.5 47.5t-48.5 117.5v552h102v-542q0 -37 18 -55.5t45 -18.5t45 18.5t18 55.5v542h102v0zM188 885l90 -141h-66l-132 141h108v0z" />
    <glyph glyph-name="Uacute" unicode="&#xda;" horiz-adv-x="426" 
d="M378 712v-552q0 -70 -48.5 -117.5t-116.5 -47.5t-116.5 47.5t-48.5 117.5v552h102v-542q0 -37 18 -55.5t45 -18.5t45 18.5t18 55.5v542h102v0zM148 744l90 141h108l-132 -141h-66v0z" />
    <glyph glyph-name="Ucircumflex" unicode="&#xdb;" horiz-adv-x="426" 
d="M378 712v-552q0 -70 -48.5 -117.5t-116.5 -47.5t-116.5 47.5t-48.5 117.5v552h102v-542q0 -37 18 -55.5t45 -18.5t45 18.5t18 55.5v542h102v0zM68 744l98 141h94l98 -141h-78l-67 95l-67 -95h-78v0z" />
    <glyph glyph-name="Udieresis" unicode="&#xdc;" horiz-adv-x="426" 
d="M378 712v-552q0 -70 -48.5 -117.5t-116.5 -47.5t-116.5 47.5t-48.5 117.5v552h102v-542q0 -37 18 -55.5t45 -18.5t45 18.5t18 55.5v542h102v0zM87 756v102h90v-102h-90v0zM249 756v102h90v-102h-90v0z" />
    <glyph glyph-name="Yacute" unicode="&#xdd;" 
 />
    <glyph glyph-name="Thorn" unicode="&#xde;" horiz-adv-x="407" 
d="M48 0v712h102v-124h51q42 0 74 -11t58 -39t36 -65.5t10 -101.5q0 -46 -5.5 -80t-23.5 -63q-21 -34 -56.5 -54t-91.5 -20h-52v-154h-102v0zM150 492v-242h49q62 0 73 33.5t11 86.5q0 50 -10 86t-70 36h-53v0z" />
    <glyph glyph-name="germandbls" unicode="&#xdf;" horiz-adv-x="389" 
d="M42 0v552q0 65 36.5 115.5t114.5 50.5q87 0 120.5 -52.5t33.5 -129.5q0 -45 -7.5 -68t-31.5 -42q-4 -3 -9 -6.5t-11 -7.5q29 -16 44 -40t15 -62v-176q0 -93 -45 -116t-101 -23v95q22 0 33 10t11 41v190q0 20 -11.5 26.5t-32.5 6.5v90q23 0 33.5 7.5t10.5 31.5v80
q0 21 -9.5 35t-38.5 14q-28 0 -40.5 -19t-12.5 -69v-534h-102v0z" />
    <glyph glyph-name="agrave" unicode="&#xe0;" horiz-adv-x="370" 
d="M235 0v52h-2l-6 -8l-6 -8q-17 -20 -36 -30.5t-50 -10.5q-7 0 -14.5 1t-15.5 2q-30 7 -55 35.5t-25 95.5q0 87 32.5 129.5t128.5 42.5q7 0 14.5 -0.5t15.5 -1.5q4 0 9 -0.5t10 -0.5v53q0 26 -11 43t-40 17q-19 0 -36 -13t-22 -38h-99q2 34 14 62t32 48t48.5 31.5
t62.5 11.5q64 0 108.5 -40t44.5 -120v-353h-102v0zM235 149v69q-6 1 -11 2t-10 1h-3.5h-3.5q-33 0 -56.5 -15.5t-23.5 -56.5q0 -29 14 -47t39 -18q26 0 40.5 17t14.5 48v0zM160 715l90 -141h-66l-132 141h108v0z" />
    <glyph glyph-name="aacute" unicode="&#xe1;" horiz-adv-x="370" 
d="M235 0v52h-2l-6 -8l-6 -8q-17 -20 -36 -30.5t-50 -10.5q-7 0 -14.5 1t-15.5 2q-30 7 -55 35.5t-25 95.5q0 87 32.5 129.5t128.5 42.5q7 0 14.5 -0.5t15.5 -1.5q4 0 9 -0.5t10 -0.5v53q0 26 -11 43t-40 17q-19 0 -36 -13t-22 -38h-99q2 34 14 62t32 48t48.5 31.5
t62.5 11.5q64 0 108.5 -40t44.5 -120v-353h-102v0zM235 149v69q-6 1 -11 2t-10 1h-3.5h-3.5q-33 0 -56.5 -15.5t-23.5 -56.5q0 -29 14 -47t39 -18q26 0 40.5 17t14.5 48v0zM120 574l90 141h108l-132 -141h-66v0z" />
    <glyph glyph-name="acircumflex" unicode="&#xe2;" horiz-adv-x="370" 
d="M235 0v52h-2l-6 -8l-6 -8q-17 -20 -36 -30.5t-50 -10.5q-7 0 -14.5 1t-15.5 2q-30 7 -55 35.5t-25 95.5q0 87 32.5 129.5t128.5 42.5q7 0 14.5 -0.5t15.5 -1.5q4 0 9 -0.5t10 -0.5v53q0 26 -11 43t-40 17q-19 0 -36 -13t-22 -38h-99q2 34 14 62t32 48t48.5 31.5
t62.5 11.5q64 0 108.5 -40t44.5 -120v-353h-102v0zM235 149v69q-6 1 -11 2t-10 1h-3.5h-3.5q-33 0 -56.5 -15.5t-23.5 -56.5q0 -29 14 -47t39 -18q26 0 40.5 17t14.5 48v0zM40 574l98 141h94l98 -141h-78l-67 95l-67 -95h-78v0z" />
    <glyph glyph-name="atilde" unicode="&#xe3;" horiz-adv-x="370" 
d="M235 0v52h-2l-6 -8l-6 -8q-17 -20 -36 -30.5t-50 -10.5q-7 0 -14.5 1t-15.5 2q-30 7 -55 35.5t-25 95.5q0 87 32.5 129.5t128.5 42.5q7 0 14.5 -0.5t15.5 -1.5q4 0 9 -0.5t10 -0.5v53q0 26 -11 43t-40 17q-19 0 -36 -13t-22 -38h-99q2 34 14 62t32 48t48.5 31.5
t62.5 11.5q64 0 108.5 -40t44.5 -120v-353h-102v0zM235 149v69q-6 1 -11 2t-10 1h-3.5h-3.5q-33 0 -56.5 -15.5t-23.5 -56.5q0 -29 14 -47t39 -18q26 0 40.5 17t14.5 48v0zM304 699h51q-9 -46 -31 -78.5t-70 -32.5q-11 0 -30 5.5t-39 12.5q-2 1 -3.5 1.5t-2.5 0.5
q-22 8 -41 14t-28 6q-21 0 -32 -12.5t-12 -32.5h-51q9 46 31 78.5t70 32.5q11 0 30 -5.5t39 -12.5q2 0 3.5 -0.5t2.5 -1.5q22 -7 41.5 -13.5t27.5 -6.5q21 0 32 13t12 32v0z" />
    <glyph glyph-name="adieresis" unicode="&#xe4;" horiz-adv-x="370" 
d="M235 0v52h-2l-6 -8l-6 -8q-17 -20 -36 -30.5t-50 -10.5q-7 0 -14.5 1t-15.5 2q-30 7 -55 35.5t-25 95.5q0 87 32.5 129.5t128.5 42.5q7 0 14.5 -0.5t15.5 -1.5q4 0 9 -0.5t10 -0.5v53q0 26 -11 43t-40 17q-19 0 -36 -13t-22 -38h-99q2 34 14 62t32 48t48.5 31.5
t62.5 11.5q64 0 108.5 -40t44.5 -120v-353h-102v0zM235 149v69q-6 1 -11 2t-10 1h-3.5h-3.5q-33 0 -56.5 -15.5t-23.5 -56.5q0 -29 14 -47t39 -18q26 0 40.5 17t14.5 48v0zM59 586v102h90v-102h-90v0zM221 586v102h90v-102h-90v0z" />
    <glyph glyph-name="aring" unicode="&#xe5;" horiz-adv-x="370" 
d="M235 0v52h-2l-6 -8l-6 -8q-17 -20 -36 -30.5t-50 -10.5q-7 0 -14.5 1t-15.5 2q-30 7 -55 35.5t-25 95.5q0 87 32.5 129.5t128.5 42.5q7 0 14.5 -0.5t15.5 -1.5q4 0 9 -0.5t10 -0.5v53q0 26 -11 43t-40 17q-19 0 -36 -13t-22 -38h-99q2 34 14 62t32 48t48.5 31.5
t62.5 11.5q64 0 108.5 -40t44.5 -120v-353h-102v0zM235 149v69q-6 1 -11 2t-10 1h-3.5h-3.5q-33 0 -56.5 -15.5t-23.5 -56.5q0 -29 14 -47t39 -18q26 0 40.5 17t14.5 48v0zM83 660q0 42 30 72t72 30t72 -30.5t30 -71.5q0 -42 -30 -72t-72 -30t-72 30.5t-30 71.5v0zM124 660
q0 -25 18 -43t43 -18q26 0 43.5 18t17.5 43q0 26 -17.5 43.5t-43.5 17.5q-25 0 -43 -17.5t-18 -43.5v0z" />
    <glyph glyph-name="ae" unicode="&#xe6;" horiz-adv-x="572" 
d="M539 355v-140h-202v-69q0 -24 13.5 -37t36.5 -13q24 0 34 12t14 26q1 3 1.5 6.5t0.5 6.5h102q0 -66 -42.5 -108.5t-109.5 -43.5q-50 -1 -84 20.5t-49 50.5q-18 -36 -49.5 -53.5t-69.5 -17.5q-7 0 -14.5 1t-15.5 2q-30 7 -55 35.5t-25 95.5q0 87 32.5 129.5t128.5 42.5
q7 0 14.5 -0.5t15.5 -1.5q4 0 9 -0.5t10 -0.5v53q0 26 -11 43t-40 17q-19 0 -36 -13t-22 -38h-99q5 68 46.5 110.5t110.5 42.5q32 0 56.5 -9.5t44.5 -26.5q19 17 46 26.5t56 9.5q71 0 111.5 -45.5t40.5 -112.5v0zM235 149v69q-6 1 -11 2t-10 1h-3.5h-3.5q-33 0 -56.5 -15.5
t-23.5 -56.5q0 -29 14 -47t39 -18q26 0 40.5 17t14.5 48v0zM337 353v-58h100v58q0 29 -13.5 43.5t-36.5 14.5t-36.5 -14.5t-13.5 -43.5v0z" />
    <glyph glyph-name="ccedilla" unicode="&#xe7;" horiz-adv-x="370" 
d="M112 -86l63 82q-37 5 -65 24t-43 47q-10 20 -14.5 46t-4.5 57v167q0 31 4.5 57.5t14.5 45.5q18 33 52.5 53t80.5 20q71 0 111.5 -45.5t40.5 -116.5h-102q0 31 -13.5 45.5t-36.5 14.5t-36.5 -14.5t-13.5 -43.5v-207q0 -24 13.5 -37t36.5 -13q24 0 34 12t14 26q1 3 1.5 6.5
t0.5 6.5h102q0 -31 -10.5 -59.5t-30.5 -48.5q-17 -18 -39.5 -28.5t-51.5 -13.5l-43 -57q4 1 8 1.5t8 0.5q3 1 7 1h8q39 0 58 -17t24 -38q2 -5 2.5 -10t0.5 -10q0 -41 -30 -62t-66 -27q-7 -1 -13.5 -1.5t-13.5 -0.5q-21 0 -39.5 3.5t-32.5 8.5q-6 2 -11.5 3.5t-9.5 3.5l17 41
q16 -5 32.5 -9.5t32.5 -4.5q4 0 8 0.5t9 0.5q14 3 25.5 12t11.5 28q0 17 -14 27.5t-31 10.5q-7 0 -13.5 -0.5t-12.5 -2.5q-3 -1 -6.5 -2t-6.5 -2l-17 19v0z" />
    <glyph glyph-name="egrave" unicode="&#xe8;" horiz-adv-x="370" 
d="M337 215h-202v-69q0 -24 13.5 -37t36.5 -13q24 0 34 12t14 26q1 3 1.5 6.5t0.5 6.5h102q0 -31 -10.5 -59.5t-30.5 -48.5q-20 -21 -48 -32.5t-63 -11.5q-46 0 -80.5 19.5t-52.5 52.5q-10 20 -14.5 46t-4.5 57v167q0 31 4.5 57.5t14.5 45.5q18 33 52.5 53t80.5 20
q71 0 111.5 -45.5t40.5 -112.5v-140v0zM135 353v-58h100v58q0 29 -13.5 43.5t-36.5 14.5t-36.5 -14.5t-13.5 -43.5v0zM160 715l90 -141h-66l-132 141h108v0z" />
    <glyph glyph-name="eacute" unicode="&#xe9;" horiz-adv-x="370" 
d="M337 215h-202v-69q0 -24 13.5 -37t36.5 -13q24 0 34 12t14 26q1 3 1.5 6.5t0.5 6.5h102q0 -31 -10.5 -59.5t-30.5 -48.5q-20 -21 -48 -32.5t-63 -11.5q-46 0 -80.5 19.5t-52.5 52.5q-10 20 -14.5 46t-4.5 57v167q0 31 4.5 57.5t14.5 45.5q18 33 52.5 53t80.5 20
q71 0 111.5 -45.5t40.5 -112.5v-140v0zM135 353v-58h100v58q0 29 -13.5 43.5t-36.5 14.5t-36.5 -14.5t-13.5 -43.5v0zM120 574l90 141h108l-132 -141h-66v0z" />
    <glyph glyph-name="ecircumflex" unicode="&#xea;" horiz-adv-x="370" 
d="M337 215h-202v-69q0 -24 13.5 -37t36.5 -13q24 0 34 12t14 26q1 3 1.5 6.5t0.5 6.5h102q0 -31 -10.5 -59.5t-30.5 -48.5q-20 -21 -48 -32.5t-63 -11.5q-46 0 -80.5 19.5t-52.5 52.5q-10 20 -14.5 46t-4.5 57v167q0 31 4.5 57.5t14.5 45.5q18 33 52.5 53t80.5 20
q71 0 111.5 -45.5t40.5 -112.5v-140v0zM135 353v-58h100v58q0 29 -13.5 43.5t-36.5 14.5t-36.5 -14.5t-13.5 -43.5v0zM40 574l98 141h94l98 -141h-78l-67 95l-67 -95h-78v0z" />
    <glyph glyph-name="edieresis" unicode="&#xeb;" horiz-adv-x="370" 
d="M337 215h-202v-69q0 -24 13.5 -37t36.5 -13q24 0 34 12t14 26q1 3 1.5 6.5t0.5 6.5h102q0 -31 -10.5 -59.5t-30.5 -48.5q-20 -21 -48 -32.5t-63 -11.5q-46 0 -80.5 19.5t-52.5 52.5q-10 20 -14.5 46t-4.5 57v167q0 31 4.5 57.5t14.5 45.5q18 33 52.5 53t80.5 20
q71 0 111.5 -45.5t40.5 -112.5v-140v0zM135 353v-58h100v58q0 29 -13.5 43.5t-36.5 14.5t-36.5 -14.5t-13.5 -43.5v0zM59 586v102h90v-102h-90v0zM221 586v102h90v-102h-90v0z" />
    <glyph glyph-name="igrave" unicode="&#xec;" 
d="M42 0v507h102v-507h-102v0zM68 715l90 -141h-66l-132 141h108v0z" />
    <glyph glyph-name="iacute" unicode="&#xed;" 
d="M42 0v507h102v-507h-102v0zM28 574l90 141h108l-132 -141h-66v0z" />
    <glyph glyph-name="icircumflex" unicode="&#xee;" 
d="M42 0v507h102v-507h-102v0zM-52 574l98 141h94l98 -141h-78l-67 95l-67 -95h-78v0z" />
    <glyph glyph-name="idieresis" unicode="&#xef;" 
d="M42 0v507h102v-507h-102v0zM-33 586v102h90v-102h-90v0zM129 586v102h90v-102h-90v0z" />
    <glyph glyph-name="eth" unicode="&#xf0;" horiz-adv-x="370" 
d="M86 608l69 32q-15 13 -34.5 23.5t-42.5 19.5l83 44q24 -8 44 -20t36 -27l68 32l28 -40l-63 -29q25 -33 38.5 -72t18.5 -80q3 -21 4.5 -42t1.5 -41v-238q0 -31 -4 -57t-15 -46q-18 -33 -52 -52.5t-81 -19.5q-46 0 -80.5 19.5t-52.5 52.5q-10 20 -14.5 46t-4.5 57v167
q0 31 4.5 57.5t14.5 45.5q18 33 52.5 53t80.5 20q14 0 27.5 -6.5t20.5 -16.5l2 2q-8 35 -19 62.5t-28 48.5l-74 -35l-28 40v0zM135 353v-199q0 -28 13.5 -43t36.5 -15t36.5 15t13.5 43v199q0 29 -13.5 43.5t-36.5 14.5t-36.5 -14.5t-13.5 -43.5v0z" />
    <glyph glyph-name="ntilde" unicode="&#xf1;" horiz-adv-x="389" 
d="M42 0v507h102v-49h2q16 24 38.5 39.5t57.5 15.5h4h4q36 -3 66.5 -31t30.5 -93v-389h-102v351q0 28 -13 44t-37 16q-28 0 -39.5 -18t-11.5 -52v-341h-102v0zM314 699h51q-9 -46 -31 -78.5t-70 -32.5q-11 0 -30 5.5t-39 12.5q-2 1 -3.5 1.5t-2.5 0.5q-22 8 -41 14t-28 6
q-21 0 -32 -12.5t-12 -32.5h-51q9 46 31 78.5t70 32.5q11 0 30 -5.5t39 -12.5q2 0 3.5 -0.5t2.5 -1.5q22 -7 41.5 -13.5t27.5 -6.5q21 0 32 13t12 32v0z" />
    <glyph glyph-name="ograve" unicode="&#xf2;" horiz-adv-x="370" 
d="M33 170v167q0 31 4.5 57.5t14.5 45.5q18 33 52.5 53t80.5 20q47 0 81 -20t52 -53q11 -19 15 -45.5t4 -57.5v-167q0 -31 -4 -57t-15 -46q-18 -33 -52 -52.5t-81 -19.5q-46 0 -80.5 19.5t-52.5 52.5q-10 20 -14.5 46t-4.5 57v0zM135 353v-199q0 -28 13.5 -43t36.5 -15
t36.5 15t13.5 43v199q0 29 -13.5 43.5t-36.5 14.5t-36.5 -14.5t-13.5 -43.5v0zM160 715l90 -141h-66l-132 141h108v0z" />
    <glyph glyph-name="oacute" unicode="&#xf3;" horiz-adv-x="370" 
d="M33 170v167q0 31 4.5 57.5t14.5 45.5q18 33 52.5 53t80.5 20q47 0 81 -20t52 -53q11 -19 15 -45.5t4 -57.5v-167q0 -31 -4 -57t-15 -46q-18 -33 -52 -52.5t-81 -19.5q-46 0 -80.5 19.5t-52.5 52.5q-10 20 -14.5 46t-4.5 57v0zM135 353v-199q0 -28 13.5 -43t36.5 -15
t36.5 15t13.5 43v199q0 29 -13.5 43.5t-36.5 14.5t-36.5 -14.5t-13.5 -43.5v0zM120 574l90 141h108l-132 -141h-66v0z" />
    <glyph glyph-name="ocircumflex" unicode="&#xf4;" horiz-adv-x="370" 
d="M33 170v167q0 31 4.5 57.5t14.5 45.5q18 33 52.5 53t80.5 20q47 0 81 -20t52 -53q11 -19 15 -45.5t4 -57.5v-167q0 -31 -4 -57t-15 -46q-18 -33 -52 -52.5t-81 -19.5q-46 0 -80.5 19.5t-52.5 52.5q-10 20 -14.5 46t-4.5 57v0zM135 353v-199q0 -28 13.5 -43t36.5 -15
t36.5 15t13.5 43v199q0 29 -13.5 43.5t-36.5 14.5t-36.5 -14.5t-13.5 -43.5v0zM40 574l98 141h94l98 -141h-78l-67 95l-67 -95h-78v0z" />
    <glyph glyph-name="otilde" unicode="&#xf5;" horiz-adv-x="370" 
d="M33 170v167q0 31 4.5 57.5t14.5 45.5q18 33 52.5 53t80.5 20q47 0 81 -20t52 -53q11 -19 15 -45.5t4 -57.5v-167q0 -31 -4 -57t-15 -46q-18 -33 -52 -52.5t-81 -19.5q-46 0 -80.5 19.5t-52.5 52.5q-10 20 -14.5 46t-4.5 57v0zM135 353v-199q0 -28 13.5 -43t36.5 -15
t36.5 15t13.5 43v199q0 29 -13.5 43.5t-36.5 14.5t-36.5 -14.5t-13.5 -43.5v0zM304 699h51q-9 -46 -31 -78.5t-70 -32.5q-11 0 -30 5.5t-39 12.5q-2 1 -3.5 1.5t-2.5 0.5q-22 8 -41 14t-28 6q-21 0 -32 -12.5t-12 -32.5h-51q9 46 31 78.5t70 32.5q11 0 30 -5.5t39 -12.5
q2 0 3.5 -0.5t2.5 -1.5q22 -7 41.5 -13.5t27.5 -6.5q21 0 32 13t12 32v0z" />
    <glyph glyph-name="odieresis" unicode="&#xf6;" horiz-adv-x="370" 
d="M33 170v167q0 31 4.5 57.5t14.5 45.5q18 33 52.5 53t80.5 20q47 0 81 -20t52 -53q11 -19 15 -45.5t4 -57.5v-167q0 -31 -4 -57t-15 -46q-18 -33 -52 -52.5t-81 -19.5q-46 0 -80.5 19.5t-52.5 52.5q-10 20 -14.5 46t-4.5 57v0zM135 353v-199q0 -28 13.5 -43t36.5 -15
t36.5 15t13.5 43v199q0 29 -13.5 43.5t-36.5 14.5t-36.5 -14.5t-13.5 -43.5v0zM59 586v102h90v-102h-90v0zM221 586v102h90v-102h-90v0z" />
    <glyph glyph-name="divide" unicode="&#xf7;" horiz-adv-x="600" 
d="M236 46q0 26 19 45t45 19t45 -19t19 -45t-19 -44.5t-45 -18.5t-45 18.5t-19 44.5v0zM47 213v80h506v-80h-506v0zM236 460q0 26 19 45t45 19t45 -19t19 -45t-19 -45t-45 -19t-45 19t-19 45v0z" />
    <glyph glyph-name="oslash" unicode="&#xf8;" horiz-adv-x="370" 
d="M4 -12l49 83q-10 20 -15 41.5t-5 45.5v191q0 71 41 117.5t111 46.5q33 0 60 -11t46 -31l41 69l34 -21l-49 -83q10 -19 15 -41t5 -46v-191q0 -71 -40.5 -117t-111.5 -46q-33 0 -59.5 10.5t-46.5 30.5l-41 -69l-34 21v0zM233 298l-95 -163q3 -19 15.5 -29t31.5 -10
q23 0 36.5 15t13.5 43v144h-2v0zM137 209l95 163q-3 19 -15 29t-32 10q-23 0 -36.5 -14.5t-13.5 -43.5v-144h2v0z" />
    <glyph glyph-name="ugrave" unicode="&#xf9;" horiz-adv-x="389" 
d="M347 507v-507h-102v49h-2q-16 -24 -38.5 -39t-57.5 -15h-4h-4q-36 3 -66.5 30.5t-30.5 92.5v389h102v-351q0 -28 13 -44t37 -16q29 0 40 18t11 52v341h102v0zM170 715l90 -141h-66l-132 141h108v0z" />
    <glyph glyph-name="uacute" unicode="&#xfa;" horiz-adv-x="389" 
d="M347 507v-507h-102v49h-2q-16 -24 -38.5 -39t-57.5 -15h-4h-4q-36 3 -66.5 30.5t-30.5 92.5v389h102v-351q0 -28 13 -44t37 -16q29 0 40 18t11 52v341h102v0zM130 574l90 141h108l-132 -141h-66v0z" />
    <glyph glyph-name="ucircumflex" unicode="&#xfb;" horiz-adv-x="389" 
d="M347 507v-507h-102v49h-2q-16 -24 -38.5 -39t-57.5 -15h-4h-4q-36 3 -66.5 30.5t-30.5 92.5v389h102v-351q0 -28 13 -44t37 -16q29 0 40 18t11 52v341h102v0zM50 574l98 141h94l98 -141h-78l-67 95l-67 -95h-78v0z" />
    <glyph glyph-name="udieresis" unicode="&#xfc;" horiz-adv-x="389" 
d="M347 507v-507h-102v49h-2q-16 -24 -38.5 -39t-57.5 -15h-4h-4q-36 3 -66.5 30.5t-30.5 92.5v389h102v-351q0 -28 13 -44t37 -16q29 0 40 18t11 52v341h102v0zM69 586v102h90v-102h-90v0zM231 586v102h90v-102h-90v0z" />
    <glyph glyph-name="yacute" unicode="&#xfd;" 
 />
    <glyph glyph-name="thorn" unicode="&#xfe;" horiz-adv-x="389" 
d="M42 -205v917h102v-251q3 4 6 7t6 7q16 16 34.5 27t50.5 11q31 0 53.5 -11.5t35.5 -36.5q9 -16 13 -41.5t4 -67.5v-193q0 -55 -3 -81t-13 -42q-13 -20 -33.5 -32.5t-57.5 -12.5q-30 0 -53.5 13t-40.5 38h-2v-251h-102v0zM245 156v186q0 31 -12 50t-38 19q-23 0 -37 -17.5
t-14 -45.5v-197q0 -24 14.5 -39.5t36.5 -15.5q29 0 39.5 18t10.5 42v0z" />
    <glyph glyph-name="ydieresis" unicode="&#xff;" horiz-adv-x="352" 
d="M-1 507h108l70 -316h2l69 316h105l-146 -595q-16 -67 -55.5 -91.5t-85.5 -24.5l-28 -1v96h23q23 1 36 11t24 49q4 14 8 31.5t9 40.5l-139 484v0zM50 586v102h90v-102h-90v0zM212 586v102h90v-102h-90v0z" />
    <glyph glyph-name="Abreve" unicode="&#x102;" 
 />
    <glyph glyph-name="abreve" unicode="&#x103;" 
 />
    <glyph glyph-name="Aogonek" unicode="&#x104;" 
 />
    <glyph glyph-name="aogonek" unicode="&#x105;" 
 />
    <glyph glyph-name="Cacute" unicode="&#x106;" 
 />
    <glyph glyph-name="cacute" unicode="&#x107;" 
 />
    <glyph glyph-name="Ccaron" unicode="&#x10c;" 
 />
    <glyph glyph-name="ccaron" unicode="&#x10d;" 
 />
    <glyph glyph-name="Dcaron" unicode="&#x10e;" 
 />
    <glyph glyph-name="dcaron" unicode="&#x10f;" 
 />
    <glyph glyph-name="Dslash" unicode="&#x110;" 
 />
    <glyph glyph-name="dslash" unicode="&#x111;" 
 />
    <glyph glyph-name="Eogonek" unicode="&#x118;" 
 />
    <glyph glyph-name="eogonek" unicode="&#x119;" 
 />
    <glyph glyph-name="Ecaron" unicode="&#x11a;" 
 />
    <glyph glyph-name="ecaron" unicode="&#x11b;" 
 />
    <glyph glyph-name="Gbreve" unicode="&#x11e;" 
 />
    <glyph glyph-name="gbreve" unicode="&#x11f;" 
 />
    <glyph glyph-name="Idot" unicode="&#x130;" 
 />
    <glyph glyph-name="dotlessi" unicode="&#x131;" 
d="M42 0v507h102v-507h-102v0z" />
    <glyph glyph-name="Lacute" unicode="&#x139;" 
 />
    <glyph glyph-name="lacute" unicode="&#x13a;" 
 />
    <glyph glyph-name="Lcaron" unicode="&#x13d;" 
 />
    <glyph glyph-name="lcaron" unicode="&#x13e;" 
 />
    <glyph glyph-name="Ldot" unicode="&#x13f;" 
 />
    <glyph glyph-name="ldot" unicode="&#x140;" 
 />
    <glyph glyph-name="Lslash" unicode="&#x141;" horiz-adv-x="370" 
d="M48 0v265l-48 -38v90l48 38v357h102v-277l120 96v-90l-120 -96v-243h202v-102h-304v0z" />
    <glyph glyph-name="lslash" unicode="&#x142;" 
d="M36 136v172l-50 -44v72l50 44v332h102v-242l50 43v-72l-50 -43v-255q0 -28 10.5 -39t39.5 -14v-96q-70 1 -111 27.5t-41 114.5v0z" />
    <glyph glyph-name="Nacute" unicode="&#x143;" 
 />
    <glyph glyph-name="nacute" unicode="&#x144;" 
 />
    <glyph glyph-name="Ncaron" unicode="&#x147;" 
 />
    <glyph glyph-name="ncaron" unicode="&#x148;" 
 />
    <glyph glyph-name="Odblacute" unicode="&#x150;" 
 />
    <glyph glyph-name="odblacute" unicode="&#x151;" 
 />
    <glyph glyph-name="OE" unicode="&#x152;" horiz-adv-x="610" 
d="M592 712v-96h-202v-209h176v-96h-176v-209h202v-102h-304v34h-2q-11 -16 -32 -26t-43 -13h-5.5h-4.5q-73 0 -113 50.5t-40 117.5v386q0 68 40 118.5t113 50.5q33 0 54 -12.5t31 -29.5h2v36h304v0zM288 158v396q0 30 -18.5 52t-50.5 22q-31 0 -50 -22t-19 -52v-396
q0 -30 19 -52t50 -22q32 0 50.5 22t18.5 52v0z" />
    <glyph glyph-name="oe" unicode="&#x153;" horiz-adv-x="572" 
d="M33 170v167q0 31 4.5 57.5t14.5 45.5q18 33 52.5 53t80.5 20q32 0 58 -10t43 -24q20 17 46.5 25.5t54.5 8.5q71 0 111.5 -45.5t40.5 -112.5v-140h-202v-69q0 -24 13.5 -37t36.5 -13q24 0 34 12t14 26q1 3 1.5 6.5t0.5 6.5h102q0 -31 -10.5 -59.5t-30.5 -48.5
q-20 -21 -48 -32.5t-63 -11.5q-7 0 -15 0.5t-16 1.5q-21 3 -41 11t-33 21q-16 -16 -42 -25t-55 -9q-46 0 -80.5 19.5t-52.5 52.5q-10 20 -14.5 46t-4.5 57v0zM135 353v-199q0 -28 13.5 -43t36.5 -15t36.5 15t13.5 43v199q0 29 -13.5 43.5t-36.5 14.5t-36.5 -14.5
t-13.5 -43.5v0zM337 353v-58h100v58q0 29 -13.5 43.5t-36.5 14.5t-36.5 -14.5t-13.5 -43.5v0z" />
    <glyph glyph-name="Racute" unicode="&#x154;" 
 />
    <glyph glyph-name="racute" unicode="&#x155;" 
 />
    <glyph glyph-name="Rcaron" unicode="&#x158;" 
 />
    <glyph glyph-name="rcaron" unicode="&#x159;" 
 />
    <glyph glyph-name="Sacute" unicode="&#x15a;" 
 />
    <glyph glyph-name="sacute" unicode="&#x15b;" 
 />
    <glyph glyph-name="Scedilla" unicode="&#x15e;" 
 />
    <glyph glyph-name="scedilla" unicode="&#x15f;" 
 />
    <glyph glyph-name="Scaron" unicode="&#x160;" horiz-adv-x="406" 
d="M378 557v-50h-102v23q0 35 -16.5 60.5t-55.5 25.5q-42 0 -55.5 -28.5t-13.5 -63.5q0 -39 8 -58t42 -34q2 -1 4 -1.5t4 -1.5l78 -31q68 -25 87.5 -71t19.5 -124q0 -90 -38.5 -149t-137.5 -59q-74 0 -124 48t-50 120v38h102v-32q0 -28 16.5 -50.5t55.5 -22.5q52 0 63 28.5
t11 77.5q0 51 -8 70t-36 32q-3 1 -7 2.5t-8 3.5l-73 30q-66 27 -88.5 71.5t-22.5 111.5q0 81 43.5 138t131.5 57q74 0 120 -47.5t50 -105.5v-4v-4v0zM348 885l-98 -141h-94l-98 141h78l67 -95l67 95h78v0z" />
    <glyph glyph-name="scaron" unicode="&#x161;" horiz-adv-x="352" 
d="M323 365h-96q-1 26 -16.5 39t-35.5 13q-24 0 -37 -15.5t-13 -35.5q0 -14 7.5 -27.5t35.5 -24.5l60 -24q57 -22 78.5 -60t21.5 -83q0 -63 -43 -107.5t-109 -44.5q-60 0 -104.5 38.5t-47.5 113.5h96v-1.5v-1.5q4 -20 15.5 -37t39.5 -17q22 0 39.5 15t17.5 40q0 21 -11 36
t-40 26l-49 18q-48 18 -75.5 53.5t-27.5 86.5q0 65 44.5 106.5t105.5 41.5q62 0 102.5 -42.5t41.5 -105.5v0zM321 715l-98 -141h-94l-98 141h78l67 -95l67 95h78v0z" />
    <glyph glyph-name="Tcedilla" unicode="&#x162;" 
 />
    <glyph glyph-name="tcedilla" unicode="&#x163;" 
 />
    <glyph glyph-name="Tcaron" unicode="&#x164;" 
 />
    <glyph glyph-name="tcaron" unicode="&#x165;" 
 />
    <glyph glyph-name="Uring" unicode="&#x16e;" 
 />
    <glyph glyph-name="uring" unicode="&#x16f;" 
 />
    <glyph glyph-name="udblacute" unicode="&#x170;" 
 />
    <glyph glyph-name="Udblacute" unicode="&#x171;" 
 />
    <glyph glyph-name="Ydieresis" unicode="&#x178;" horiz-adv-x="388" 
d="M143 0v301l-140 411h108l82 -283h2l82 283h108l-140 -411v-301h-102v0zM68 756v102h90v-102h-90v0zM230 756v102h90v-102h-90v0z" />
    <glyph glyph-name="Zacute" unicode="&#x179;" 
 />
    <glyph glyph-name="zacute" unicode="&#x17a;" 
 />
    <glyph glyph-name="Zdot" unicode="&#x17b;" 
 />
    <glyph glyph-name="zdot" unicode="&#x17c;" 
 />
    <glyph glyph-name="Zcaron" unicode="&#x17d;" horiz-adv-x="333" 
d="M15 0v90l192 526h-182v96h293v-81l-196 -535h196v-96h-303v0zM312 885l-98 -141h-94l-98 141h78l67 -95l67 95h78v0z" />
    <glyph glyph-name="zcaron" unicode="&#x17e;" horiz-adv-x="315" 
d="M17 0v81l165 336h-152v90h268v-81l-165 -330h165v-96h-281v0zM303 715l-98 -141h-94l-98 141h78l67 -95l67 95h78v0z" />
    <glyph glyph-name="florin" unicode="&#x192;" horiz-adv-x="372" 
d="M45 371l11 80h84l23 128q16 86 53.5 112.5t85.5 26.5q14 0 29 -1t35 -3l-14 -92q-3 1 -6.5 1.5t-6.5 0.5q-6 2 -12.5 3t-13.5 1q-26 0 -38.5 -15t-20.5 -59l-18 -103h77l-13 -80h-78l-71 -398q-13 -76 -45.5 -125t-111.5 -49q-12 0 -21.5 1t-17.5 3q-3 1 -6.5 2t-7.5 2
l10 93q6 -1 12.5 -2t12.5 -2q4 -1 8 -1h8q25 0 39 16t19 44l75 416h-80v0z" />
    <glyph glyph-name="hungarumlaut" unicode="&#x2ba;" 
d="M-54 574l90 141h108l-132 -141h-66v0zM108 574l90 141h108l-132 -141h-66v0z" />
    <glyph glyph-name="tilde" unicode="&#x2c6;" 
d="M212 699h51q-9 -46 -31 -78.5t-70 -32.5q-11 0 -30 5.5t-39 12.5q-2 1 -3.5 1.5t-2.5 0.5q-22 8 -41 14t-28 6q-20 0 -31 -12.5t-12 -32.5h-52q10 46 32 78.5t69 32.5q11 0 30 -5.5t39 -12.5q2 0 3.5 -0.5t2.5 -1.5q22 -7 41.5 -13.5t27.5 -6.5q21 0 32 13t12 32v0z" />
    <glyph glyph-name="caron" unicode="&#x2c7;" 
d="M238 715l-98 -141h-94l-98 141h78l67 -95l67 95h78v0z" />
    <glyph glyph-name="macron" unicode="&#x2c9;" 
d="M-44 607v60h274v-60h-274v0z" />
    <glyph glyph-name="breve" unicode="&#x2d8;" 
d="M196 715h51q-10 -67 -49 -101.5t-105 -34.5t-104.5 34.5t-48.5 101.5h50q1 -1 1.5 -2.5t0.5 -2.5q5 -27 26 -49t75 -22t75.5 22t26.5 49q0 1 0.5 2.5t0.5 2.5v0z" />
    <glyph glyph-name="dotaccent" unicode="&#x2d9;" 
d="M48 586v102h90v-102h-90v0z" />
    <glyph glyph-name="ring" unicode="&#x2da;" 
d="M-9 660q1 42 30.5 72t71.5 30t72 -30.5t30 -71.5q0 -42 -30 -72t-72 -30t-71.5 30.5t-29.5 71.5h-1zM32 660q0 -25 18 -43t43 -18q26 0 43.5 18t17.5 43q0 26 -17.5 43.5t-43.5 17.5q-25 0 -43 -17.5t-18 -43.5v0z" />
    <glyph glyph-name="ogonek" unicode="&#x2db;" 
d="M181 -165l14 -37q-15 -7 -39.5 -14t-57.5 -7q-42 0 -70 24.5t-28 66.5q0 43 21.5 70.5t54.5 50.5l8 6t8 5h51q-18 -16 -31.5 -35t-21.5 -39q-5 -13 -8 -26t-3 -25q0 -24 15 -38t34 -14q17 0 30 3.5t23 9.5v-1z" />
    <glyph glyph-name="circumflex" unicode="&#x2dc;" 
d="M-52 574l98 141h94l98 -141h-78l-67 95l-67 -95h-78v0z" />
    <glyph glyph-name="Gamma" unicode="&#x393;" horiz-adv-x="500" 
 />
    <glyph glyph-name="Theta" unicode="&#x398;" horiz-adv-x="500" 
 />
    <glyph glyph-name="summation" unicode="&#x3a3;" horiz-adv-x="500" 
 />
    <glyph glyph-name="Phi" unicode="&#x3a6;" horiz-adv-x="500" 
 />
    <glyph glyph-name="Omega" unicode="&#x3a9;" horiz-adv-x="500" 
 />
    <glyph glyph-name="alpha" unicode="&#x3b1;" horiz-adv-x="500" 
 />
    <glyph glyph-name="delta" unicode="&#x3b4;" horiz-adv-x="500" 
 />
    <glyph glyph-name="epsilon" unicode="&#x3b5;" horiz-adv-x="500" 
 />
    <glyph glyph-name="pi" unicode="&#x3c0;" horiz-adv-x="500" 
 />
    <glyph glyph-name="sigma" unicode="&#x3c3;" 
 />
    <glyph glyph-name="tau" unicode="&#x3c4;" horiz-adv-x="500" 
 />
    <glyph glyph-name="phi" unicode="&#x3c6;" 
 />
    <glyph glyph-name="glyph276" unicode="&#x2013;" horiz-adv-x="500" 
d="M0 229v96h500v-96h-500v0z" />
    <glyph glyph-name="emdash" unicode="&#x2014;" horiz-adv-x="1000" 
d="M0 229v96h1000v-96h-1000v0z" />
    <glyph glyph-name="underscoredbl" unicode="&#x2017;" horiz-adv-x="500" 
 />
    <glyph glyph-name="quoteleft" unicode="&#x2018;" 
d="M144 712v-176h-102v102l102 74v0z" />
    <glyph glyph-name="quoteright" unicode="&#x2019;" 
d="M42 536v176h102v-102l-102 -74v0z" />
    <glyph glyph-name="quotesinglbase" unicode="&#x201a;" 
d="M42 -74v176h102v-102l-102 -74v0z" />
    <glyph glyph-name="quotedblleft" unicode="&#x201c;" horiz-adv-x="278" 
d="M120 712v-176h-102v102l102 74v0zM260 712v-176h-102v102l102 74v0z" />
    <glyph glyph-name="quotedblright" unicode="&#x201d;" horiz-adv-x="278" 
d="M18 536v176h102v-102l-102 -74v0zM158 536v176h102v-102l-102 -74v0z" />
    <glyph glyph-name="quotedblbase" unicode="&#x201e;" horiz-adv-x="278" 
d="M18 -74v176h102v-102l-102 -74v0zM158 -74v176h102v-102l-102 -74v0z" />
    <glyph glyph-name="dagger" unicode="&#x2020;" horiz-adv-x="370" 
d="M140 -205v601h-134v90h134v226h90v-226h134v-90h-134v-601h-90v0z" />
    <glyph glyph-name="daggerdbl" unicode="&#x2021;" horiz-adv-x="370" 
d="M140 494v218h90v-218h134v-80h-134v-321h134v-80h-134v-218h-90v218h-134v80h134v321h-134v80h134v0z" />
    <glyph glyph-name="glyph287" unicode="&#x2022;" horiz-adv-x="500" 
d="M72 356q0 74 52.5 126t125.5 52q74 0 126 -52t52 -126q0 -73 -52 -125.5t-126 -52.5q-73 0 -125.5 52.5t-52.5 125.5v0z" />
    <glyph glyph-name="ellipsis" unicode="&#x2026;" horiz-adv-x="1000" 
d="M116 0v102h102v-102h-102v0zM449 0v102h102v-102h-102v0zM782 0v102h102v-102h-102v0z" />
    <glyph glyph-name="perthousand" unicode="&#x2030;" horiz-adv-x="537" 
d="M165 70v65q0 38 23 60t62 22t62 -22t23 -60v-65q0 -34 -23 -54.5t-62 -20.5t-62 20.5t-23 54.5v0zM225 131v-51q0 -10 7.5 -18t17.5 -8t17.5 8t7.5 18v51q0 11 -7.5 18.5t-17.5 7.5t-17.5 -7.5t-7.5 -18.5v0zM358 70v65q0 38 23 60t62 22t62 -22t23 -60v-65
q0 -34 -23 -54.5t-62 -20.5t-62 20.5t-23 54.5v0zM418 131v-51q0 -10 7.5 -18t17.5 -8t17.5 8t7.5 18v51q0 11 -7.5 18.5t-17.5 7.5t-17.5 -7.5t-7.5 -18.5v0zM20 0l244 712h66l-244 -712h-66v0zM9 571v65q0 38 23 60t62 22t62 -22t23 -60v-65q0 -34 -23 -55t-62 -21t-62 21
t-23 55v0zM69 632v-51q0 -10 7.5 -18t17.5 -8t17.5 8t7.5 18v51q0 11 -7.5 18.5t-17.5 7.5t-17.5 -7.5t-7.5 -18.5v0z" />
    <glyph glyph-name="guilsinglleft" unicode="&#x2039;" horiz-adv-x="241" 
d="M213 479v-102l-101 -100l101 -100v-102l-203 202l203 202v0z" />
    <glyph glyph-name="guilsinglright" unicode="&#x203a;" horiz-adv-x="241" 
d="M28 75v102l101 100l-101 100v102l203 -202l-203 -202v0z" />
    <glyph glyph-name="exclamdbl" unicode="&#x203c;" horiz-adv-x="500" 
 />
    <glyph glyph-name="nsuperior" unicode="&#x207f;" horiz-adv-x="500" 
 />
    <glyph glyph-name="franc" unicode="&#x20a3;" horiz-adv-x="500" 
 />
    <glyph glyph-name="peseta" unicode="&#x20a7;" horiz-adv-x="500" 
 />
    <glyph glyph-name="trademark" unicode="&#x2122;" horiz-adv-x="990" 
d="M166 300v346h-127v66h326v-66h-127v-346h-72v0zM805 300v346h-2l-137 -346h-41l-136 346h-2v-346h-72v412h114l117 -301l117 301h114v-412h-72v0z" />
    <glyph glyph-name="arrowleft" unicode="&#x2190;" 
 />
    <glyph glyph-name="arrowup" unicode="&#x2191;" 
 />
    <glyph glyph-name="arrowright" unicode="&#x2192;" horiz-adv-x="500" 
 />
    <glyph glyph-name="arrowdown" unicode="&#x2193;" 
 />
    <glyph glyph-name="arrowboth" unicode="&#x2194;" 
 />
    <glyph glyph-name="arrowupdn" unicode="&#x2195;" 
 />
    <glyph glyph-name="arrowupdnbase" unicode="&#x21a8;" 
 />
    <glyph glyph-name="partialdiff" unicode="&#x2202;" horiz-adv-x="500" 
 />
    <glyph glyph-name="Delta" unicode="&#x2206;" horiz-adv-x="500" 
 />
    <glyph glyph-name="product" unicode="&#x220f;" 
 />
    <glyph glyph-name="minus" unicode="&#x2212;" horiz-adv-x="600" 
d="M47 213v80h506v-80h-506v0z" />
    <glyph glyph-name="fraction" unicode="&#x2215;" horiz-adv-x="167" 
d="M-165 -17l437 746h60l-437 -746h-60v0z" />
    <glyph glyph-name="periodcentered" unicode="&#x2219;" 
d="M29 298q0 26 19 45t45 19t45 -19t19 -45t-19 -45t-45 -19t-45 19t-19 45v0z" />
    <glyph glyph-name="radical" unicode="&#x221a;" horiz-adv-x="500" 
 />
    <glyph glyph-name="infinity" unicode="&#x221e;" 
 />
    <glyph glyph-name="orthogonal" unicode="&#x221f;" 
 />
    <glyph glyph-name="intersection" unicode="&#x2229;" 
 />
    <glyph glyph-name="integral" unicode="&#x222b;" 
 />
    <glyph glyph-name="approxequal" unicode="&#x2248;" horiz-adv-x="500" 
 />
    <glyph glyph-name="notequal" unicode="&#x2260;" horiz-adv-x="500" 
 />
    <glyph glyph-name="equivalence" unicode="&#x2261;" 
 />
    <glyph glyph-name="lessequal" unicode="&#x2264;" horiz-adv-x="500" 
 />
    <glyph glyph-name="greaterequal" unicode="&#x2265;" horiz-adv-x="500" 
 />
    <glyph glyph-name="house" unicode="&#x2302;" 
 />
    <glyph glyph-name="revlogicalnot" unicode="&#x2310;" 
 />
    <glyph glyph-name="integraltp" unicode="&#x2320;" 
 />
    <glyph glyph-name="integralbt" unicode="&#x2321;" 
 />
    <glyph glyph-name="2500" unicode="&#x2500;" 
 />
    <glyph glyph-name="2502" unicode="&#x2502;" 
 />
    <glyph glyph-name="250c" unicode="&#x250c;" 
 />
    <glyph glyph-name="2510" unicode="&#x2510;" 
 />
    <glyph glyph-name="2514" unicode="&#x2514;" 
 />
    <glyph glyph-name="2518" unicode="&#x2518;" 
 />
    <glyph glyph-name="251c" unicode="&#x251c;" 
 />
    <glyph glyph-name="2524" unicode="&#x2524;" 
 />
    <glyph glyph-name="252c" unicode="&#x252c;" 
 />
    <glyph glyph-name="2534" unicode="&#x2534;" 
 />
    <glyph glyph-name="253c" unicode="&#x253c;" 
 />
    <glyph glyph-name="2550" unicode="&#x2550;" 
 />
    <glyph glyph-name="2551" unicode="&#x2551;" 
 />
    <glyph glyph-name="2552" unicode="&#x2552;" 
 />
    <glyph glyph-name="2553" unicode="&#x2553;" 
 />
    <glyph glyph-name="2554" unicode="&#x2554;" 
 />
    <glyph glyph-name="2555" unicode="&#x2555;" 
 />
    <glyph glyph-name="2556" unicode="&#x2556;" 
 />
    <glyph glyph-name="2557" unicode="&#x2557;" 
 />
    <glyph glyph-name="2558" unicode="&#x2558;" 
 />
    <glyph glyph-name="2559" unicode="&#x2559;" 
 />
    <glyph glyph-name="255a" unicode="&#x255a;" 
 />
    <glyph glyph-name="255b" unicode="&#x255b;" 
 />
    <glyph glyph-name="255c" unicode="&#x255c;" 
 />
    <glyph glyph-name="255d" unicode="&#x255d;" 
 />
    <glyph glyph-name="255e" unicode="&#x255e;" 
 />
    <glyph glyph-name="255f" unicode="&#x255f;" 
 />
    <glyph glyph-name="2560" unicode="&#x2560;" 
 />
    <glyph glyph-name="2561" unicode="&#x2561;" 
 />
    <glyph glyph-name="2562" unicode="&#x2562;" 
 />
    <glyph glyph-name="2563" unicode="&#x2563;" 
 />
    <glyph glyph-name="2564" unicode="&#x2564;" 
 />
    <glyph glyph-name="2565" unicode="&#x2565;" 
 />
    <glyph glyph-name="2566" unicode="&#x2566;" 
 />
    <glyph glyph-name="2567" unicode="&#x2567;" 
 />
    <glyph glyph-name="2568" unicode="&#x2568;" 
 />
    <glyph glyph-name="2569" unicode="&#x2569;" 
 />
    <glyph glyph-name="256a" unicode="&#x256a;" 
 />
    <glyph glyph-name="256b" unicode="&#x256b;" 
 />
    <glyph glyph-name="256c" unicode="&#x256c;" 
 />
    <glyph glyph-name="upblock" unicode="&#x2580;" 
 />
    <glyph glyph-name="dnblock" unicode="&#x2584;" 
 />
    <glyph glyph-name="block" unicode="&#x2588;" 
 />
    <glyph glyph-name="lfblock" unicode="&#x258c;" 
 />
    <glyph glyph-name="rtblock" unicode="&#x2590;" 
 />
    <glyph glyph-name="ltshade" unicode="&#x2591;" 
 />
    <glyph glyph-name="shade" unicode="&#x2592;" 
 />
    <glyph glyph-name="dkshade" unicode="&#x2593;" 
 />
    <glyph glyph-name="filledbox" unicode="&#x25a0;" horiz-adv-x="500" 
 />
    <glyph glyph-name="filledrect" unicode="&#x25ac;" 
 />
    <glyph glyph-name="triagup" unicode="&#x25b2;" 
 />
    <glyph glyph-name="triagrt" unicode="&#x25ba;" 
 />
    <glyph glyph-name="triagdn" unicode="&#x25bc;" 
 />
    <glyph glyph-name="triaglf" unicode="&#x25c4;" 
 />
    <glyph glyph-name="lozenge" unicode="&#x25ca;" horiz-adv-x="500" 
 />
    <glyph glyph-name="circle" unicode="&#x25cb;" 
 />
    <glyph glyph-name="invbullet" unicode="&#x25d8;" 
 />
    <glyph glyph-name="invcircle" unicode="&#x25d9;" 
 />
    <glyph glyph-name="smileface" unicode="&#x263a;" 
 />
    <glyph glyph-name="invsmileface" unicode="&#x263b;" 
 />
    <glyph glyph-name="sun" unicode="&#x263c;" 
 />
    <glyph glyph-name="female" unicode="&#x2640;" 
 />
    <glyph glyph-name="male" unicode="&#x2642;" 
 />
    <glyph glyph-name="spade" unicode="&#x2660;" 
 />
    <glyph glyph-name="club" unicode="&#x2663;" 
 />
    <glyph glyph-name="heart" unicode="&#x2665;" 
 />
    <glyph glyph-name="diamond" unicode="&#x2666;" 
 />
    <glyph glyph-name="musicalnote" unicode="&#x266a;" 
 />
    <glyph glyph-name="musicalnotedbl" unicode="&#x266b;" 
 />
    <glyph glyph-name="apple" unicode="&#xf000;" 
 />
    <glyph glyph-name="fi" unicode="&#xf001;" horiz-adv-x="407" 
d="M55 0v427h-50v80h50v69q0 74 41 105t90 31h47v-96h-46q-14 0 -22 -9t-8 -26v-74h76v-80h-76v-427h-102v0zM263 0v507h102v-507h-102v0zM263 610v102h102v-102h-102v0z" />
    <glyph glyph-name="fl" unicode="&#xf002;" horiz-adv-x="407" 
d="M263 136v576h102v-569q0 -28 10.5 -39t39.5 -14v-96q-70 1 -111 27.5t-41 114.5v0zM55 0v427h-50v80h50v69q0 74 41 105t90 31h47v-96h-46q-14 0 -22 -9t-8 -26v-74h76v-80h-76v-427h-102v0z" />
    <glyph glyph-name="degree" horiz-adv-x="260" 
d="M18 606q0 47 33 79.5t79 32.5q47 0 79.5 -32.5t32.5 -79.5q0 -46 -32.5 -79t-79.5 -33q-46 0 -79 33t-33 79v0zM69 606q0 -25 18 -43t43 -18q26 0 43.5 18t17.5 43q0 26 -17.5 43.5t-43.5 17.5q-25 0 -43 -17.5t-18 -43.5v0z" />
    <glyph glyph-name="bullet" horiz-adv-x="500" 
d="M72 356q0 74 52.5 126t125.5 52q74 0 126 -52t52 -126q0 -73 -52 -125.5t-126 -52.5q-73 0 -125.5 52.5t-52.5 125.5v0z" />
    <glyph glyph-name="endash" horiz-adv-x="500" 
d="M0 229v96h500v-96h-500v0z" />
    </font>
</defs>
</svg>
